<?xml version="1.0" standalone="no"?>
<!DOCTYPE svg PUBLIC "-//W3C//DTD SVG 1.1//EN" "http://www.w3.org/Graphics/SVG/1.1/DTD/svg11.dtd" >
<svg xmlns="http://www.w3.org/2000/svg">
<metadata>Generated by IcoMoon</metadata>
<defs>
<font id="icomoon" horiz-adv-x="1024">
<font-face units-per-em="1024" ascent="960" descent="-64" />
<missing-glyph horiz-adv-x="1024" />
<glyph unicode="&#x20;" horiz-adv-x="512" d="" />
<glyph unicode="&#xe900;" glyph-name="account-circle-blue" horiz-adv-x="983" d="M189.235 197.325c41.779 31.949 88.474 57.139 140.083 75.612 51.61 18.432 105.677 27.607 162.202 27.607s110.592-9.216 162.202-27.607c51.61-18.432 98.304-43.663 140.083-75.612 28.672 33.587 50.995 71.68 67.011 114.278 15.974 42.598 23.921 88.064 23.921 136.397 0 108.954-38.298 201.728-114.852 278.364-76.595 76.595-169.411 114.852-278.364 114.852s-201.728-38.298-278.282-114.852c-76.595-76.595-114.934-169.411-114.934-278.364 0-48.333 7.987-93.798 24.003-136.397 15.974-42.598 38.257-80.691 66.929-114.278zM491.52 398.848c-48.333 0-89.088 16.589-122.307 49.725-33.178 33.178-49.725 73.974-49.725 122.307s16.589 89.088 49.725 122.307c33.178 33.178 73.974 49.725 122.307 49.725s89.088-16.589 122.307-49.725c33.178-33.178 49.725-73.974 49.725-122.307s-16.589-89.088-49.725-122.307c-33.178-33.178-73.974-49.725-122.307-49.725zM491.52-43.52c-67.994 0-131.891 12.902-191.693 38.748-60.606 26.118-112.374 61.531-156.076 105.040l0.018-0.018c-43.491 43.684-78.904 95.452-103.783 152.848l-1.239 3.21c-25.805 59.802-38.748 123.699-38.748 191.693s12.902 131.891 38.748 191.693c26.118 60.606 61.531 112.374 105.040 156.076l-0.018-0.018c43.69 43.508 95.455 78.946 152.847 103.862l3.21 1.241c59.802 25.805 123.699 38.666 191.693 38.666s131.891-12.902 191.693-38.666c59.802-25.805 111.821-60.867 156.058-105.103 43.491-43.684 78.904-95.452 103.783-152.848l1.239-3.21c25.805-59.802 38.748-123.699 38.748-191.693s-12.902-131.891-38.748-191.693c-26.118-60.606-61.531-112.374-105.040-156.076l0.018 0.018c-43.684-43.491-95.452-78.904-152.848-103.783l-3.21-1.239c-59.802-25.805-123.699-38.748-191.693-38.748z" />
<glyph unicode="&#xe901;" glyph-name="account-circle-grey" horiz-adv-x="983" d="M189.235 197.325c41.779 31.949 88.474 57.139 140.083 75.612 51.61 18.432 105.677 27.607 162.202 27.607s110.592-9.216 162.202-27.607c51.61-18.432 98.304-43.663 140.083-75.612 28.672 33.587 50.995 71.68 67.011 114.278 15.974 42.598 23.921 88.064 23.921 136.397 0 108.954-38.298 201.728-114.852 278.364-76.595 76.595-169.411 114.852-278.364 114.852s-201.728-38.298-278.282-114.852c-76.595-76.595-114.934-169.411-114.934-278.364 0-48.333 7.987-93.798 24.003-136.397 15.974-42.598 38.257-80.691 66.929-114.278zM491.52 398.848c-48.333 0-89.088 16.589-122.307 49.725-33.178 33.178-49.725 73.974-49.725 122.307s16.589 89.088 49.725 122.307c33.178 33.178 73.974 49.725 122.307 49.725s89.088-16.589 122.307-49.725c33.178-33.178 49.725-73.974 49.725-122.307s-16.589-89.088-49.725-122.307c-33.178-33.178-73.974-49.725-122.307-49.725zM491.52-43.52c-67.994 0-131.891 12.902-191.693 38.748-60.606 26.118-112.374 61.531-156.076 105.040l0.018-0.018c-43.491 43.684-78.904 95.452-103.783 152.848l-1.239 3.21c-25.805 59.802-38.748 123.699-38.748 191.693s12.902 131.891 38.748 191.693c26.118 60.606 61.531 112.374 105.040 156.076l-0.018-0.018c43.69 43.508 95.455 78.946 152.847 103.862l3.21 1.241c59.802 25.805 123.699 38.666 191.693 38.666s131.891-12.902 191.693-38.666c59.802-25.805 111.821-60.867 156.058-105.103 43.491-43.684 78.904-95.452 103.783-152.848l1.239-3.21c25.805-59.802 38.748-123.699 38.748-191.693s-12.902-131.891-38.748-191.693c-26.118-60.606-61.531-112.374-105.040-156.076l0.018 0.018c-43.684-43.491-95.452-78.904-152.848-103.783l-3.21-1.239c-59.802-25.805-123.699-38.748-191.693-38.748z" />
<glyph unicode="&#xe902;" glyph-name="account-circle-white" d="M197.12 186.88c43.52 33.28 92.16 59.52 145.92 78.763 53.76 19.2 110.080 28.757 168.96 28.757s115.2-9.6 168.96-28.757c53.76-19.2 102.4-45.483 145.92-78.763 29.867 34.987 53.12 74.667 69.803 119.040 16.64 44.373 24.917 91.733 24.917 142.080 0 113.493-39.893 210.133-119.637 289.963-79.787 79.787-176.469 119.637-289.963 119.637s-210.133-39.893-289.877-119.637c-79.787-79.787-119.723-176.469-119.723-289.963 0-50.347 8.32-97.707 25.003-142.080 16.64-44.373 39.851-84.053 69.717-119.040zM512 396.8c-50.347 0-92.8 17.28-127.403 51.797-34.56 34.56-51.797 77.056-51.797 127.403s17.28 92.8 51.797 127.403c34.56 34.56 77.056 51.797 127.403 51.797s92.8-17.28 127.403-51.797c34.56-34.56 51.797-77.056 51.797-127.403s-17.28-92.8-51.797-127.403c-34.56-34.56-77.056-51.797-127.403-51.797zM512-64c-70.827 0-137.387 13.44-199.68 40.363-63.131 27.206-117.056 64.095-162.579 109.416l0.019-0.019c-45.303 45.504-82.192 99.429-108.107 159.216l-1.291 3.344c-26.88 62.293-40.363 128.853-40.363 199.68s13.44 137.387 40.363 199.68c27.206 63.131 64.095 117.056 109.416 162.579l-0.019-0.019c45.51 45.321 99.433 82.235 159.216 108.19l3.344 1.293c62.293 26.88 128.853 40.277 199.68 40.277s137.387-13.44 199.68-40.277c62.293-26.88 116.48-63.403 162.56-109.483 45.303-45.504 82.192-99.429 108.107-159.216l1.291-3.344c26.88-62.293 40.363-128.853 40.363-199.68s-13.44-137.387-40.363-199.68c-27.206-63.131-64.095-117.056-109.416-162.579l0.019 0.019c-45.504-45.303-99.429-82.192-159.216-108.107l-3.344-1.291c-62.293-26.88-128.853-40.363-199.68-40.363z" />
<glyph unicode="&#xe903;" glyph-name="account-white" d="M197.12 186.88c43.52 33.28 92.16 59.52 145.92 78.763 53.76 19.2 110.080 28.757 168.96 28.757s115.2-9.6 168.96-28.757c53.76-19.2 102.4-45.483 145.92-78.763 29.867 34.987 53.12 74.667 69.803 119.040 16.64 44.373 24.917 91.733 24.917 142.080 0 113.493-39.893 210.133-119.637 289.963-79.787 79.787-176.469 119.637-289.963 119.637s-210.133-39.893-289.877-119.637c-79.787-79.787-119.723-176.469-119.723-289.963 0-50.347 8.32-97.707 25.003-142.080 16.64-44.373 39.851-84.053 69.717-119.040zM512 396.8c-50.347 0-92.8 17.28-127.403 51.797-34.56 34.56-51.797 77.056-51.797 127.403s17.28 92.8 51.797 127.403c34.56 34.56 77.056 51.797 127.403 51.797s92.8-17.28 127.403-51.797c34.56-34.56 51.797-77.056 51.797-127.403s-17.28-92.8-51.797-127.403c-34.56-34.56-77.056-51.797-127.403-51.797zM512-64c-70.827 0-137.387 13.44-199.68 40.363-63.131 27.206-117.056 64.095-162.579 109.416l0.019-0.019c-45.303 45.504-82.192 99.429-108.107 159.216l-1.291 3.344c-26.88 62.293-40.363 128.853-40.363 199.68s13.44 137.387 40.363 199.68c27.206 63.131 64.095 117.056 109.416 162.579l-0.019-0.019c45.51 45.321 99.433 82.235 159.216 108.19l3.344 1.293c62.293 26.88 128.853 40.277 199.68 40.277s137.387-13.44 199.68-40.277c62.293-26.88 116.48-63.403 162.56-109.483 45.303-45.504 82.192-99.429 108.107-159.216l1.291-3.344c26.88-62.293 40.363-128.853 40.363-199.68s-13.44-137.387-40.363-199.68c-27.206-63.131-64.095-117.056-109.416-162.579l0.019 0.019c-45.504-45.303-99.429-82.192-159.216-108.107l-3.344-1.291c-62.293-26.88-128.853-40.363-199.68-40.363z" />
<glyph unicode="&#xe904;" glyph-name="account" d="M197.12 186.88c43.52 33.28 92.16 59.52 145.92 78.763 53.76 19.2 110.080 28.757 168.96 28.757s115.2-9.6 168.96-28.757c53.76-19.2 102.4-45.483 145.92-78.763 29.867 34.987 53.12 74.667 69.803 119.040 16.64 44.373 24.917 91.733 24.917 142.080 0 113.493-39.893 210.133-119.637 289.963-79.787 79.787-176.469 119.637-289.963 119.637s-210.133-39.893-289.877-119.637c-79.787-79.787-119.723-176.469-119.723-289.963 0-50.347 8.32-97.707 25.003-142.080 16.64-44.373 39.851-84.053 69.717-119.040zM512 396.8c-50.347 0-92.8 17.28-127.403 51.797-34.56 34.56-51.797 77.056-51.797 127.403s17.28 92.8 51.797 127.403c34.56 34.56 77.056 51.797 127.403 51.797s92.8-17.28 127.403-51.797c34.56-34.56 51.797-77.056 51.797-127.403s-17.28-92.8-51.797-127.403c-34.56-34.56-77.056-51.797-127.403-51.797zM512-64c-70.827 0-137.387 13.44-199.68 40.363-63.131 27.206-117.056 64.095-162.579 109.416l0.019-0.019c-45.303 45.504-82.192 99.429-108.107 159.216l-1.291 3.344c-26.88 62.293-40.363 128.853-40.363 199.68s13.44 137.387 40.363 199.68c27.206 63.131 64.095 117.056 109.416 162.579l-0.019-0.019c45.51 45.321 99.433 82.235 159.216 108.19l3.344 1.293c62.293 26.88 128.853 40.277 199.68 40.277s137.387-13.44 199.68-40.277c62.293-26.88 116.48-63.403 162.56-109.483 45.303-45.504 82.192-99.429 108.107-159.216l1.291-3.344c26.88-62.293 40.363-128.853 40.363-199.68s-13.44-137.387-40.363-199.68c-27.206-63.131-64.095-117.056-109.416-162.579l0.019 0.019c-45.504-45.303-99.429-82.192-159.216-108.107l-3.344-1.291c-62.293-26.88-128.853-40.363-199.68-40.363z" />
<glyph unicode="&#xe905;" glyph-name="arrow-down-white" horiz-adv-x="967" d="M494.706-22.756l-470.812 470.756 95.289 95.289 308.622-308.622v684.089h133.689v-684.089l310.044 308.622 93.867-95.289-470.756-470.756z" />
<glyph unicode="&#xe906;" glyph-name="arrow-down" horiz-adv-x="967" d="M494.706-22.756l-470.812 470.756 95.289 95.289 308.622-308.622v684.089h133.689v-684.089l310.044 308.622 93.867-95.289-470.756-470.756z" />
<glyph unicode="&#xe907;" glyph-name="arrow-left-white" d="M512 960l91.2-89.6-358.4-358.4h779.2v-128h-779.2l358.4-358.4-91.2-89.6-512 512 512 512z" />
<glyph unicode="&#xe908;" glyph-name="arrow-left" d="M512 960l91.2-89.6-358.4-358.4h779.2v-128h-779.2l358.4-358.4-91.2-89.6-512 512 512 512z" />
<glyph unicode="&#xe909;" glyph-name="arrow-right-aqua-blue" d="M512-64l-91.2 89.6 358.4 358.4h-779.2v128h779.2l-358.4 358.4 91.2 89.6 512-512-512-512z" />
<glyph unicode="&#xe90a;" glyph-name="arrow-right-blue" d="M512-64l-91.2 89.6 358.4 358.4h-779.2v128h779.2l-358.4 358.4 91.2 89.6 512-512-512-512z" />
<glyph unicode="&#xe90b;" glyph-name="arrow-right-deep-blue" d="M512-64l-91.2 89.6 358.4 358.4h-779.2v128h779.2l-358.4 358.4 91.2 89.6 512-512-512-512z" />
<glyph unicode="&#xe90c;" glyph-name="arrow-right-grey-2" d="M512-64l-91.2 89.6 358.4 358.4h-779.2v128h779.2l-358.4 358.4 91.2 89.6 512-512-512-512z" />
<glyph unicode="&#xe90d;" glyph-name="arrow-right-grey-4" d="M512-64l-91.2 89.6 358.4 358.4h-779.2v128h779.2l-358.4 358.4 91.2 89.6 512-512-512-512z" />
<glyph unicode="&#xe90e;" glyph-name="arrow-right-grey" d="M512-64l-91.2 89.6 358.4 358.4h-779.2v128h779.2l-358.4 358.4 91.2 89.6 512-512-512-512z" />
<glyph unicode="&#xe90f;" glyph-name="arrow-right-white" d="M512-64l-91.2 89.6 358.4 358.4h-779.2v128h779.2l-358.4 358.4 91.2 89.6 512-512-512-512z" />
<glyph unicode="&#xe910;" glyph-name="arrow-right" d="M512-64l-91.2 89.6 358.4 358.4h-779.2v128h779.2l-358.4 358.4 91.2 89.6 512-512-512-512z" />
<glyph unicode="&#xe911;" glyph-name="arrow-up-white" horiz-adv-x="967" d="M427.804-22.756v685.511l-308.565-310.044-95.346 95.289 470.812 470.756 470.699-470.756-93.867-95.289-310.044 310.044v-685.511h-133.689z" />
<glyph unicode="&#xe912;" glyph-name="arrow-up" horiz-adv-x="967" d="M427.804-22.756v685.511l-308.565-310.044-95.346 95.289 470.812 470.756 470.699-470.756-93.867-95.289-310.044 310.044v-685.511h-133.689z" />
<glyph unicode="&#xe913;" glyph-name="breadcrumb-arrow-left" d="M699.563 23.467l59.733 60.757-365.824 365.909 365.824 365.824-59.733 60.843-426.667-426.667 426.667-426.667z" />
<glyph unicode="&#xe914;" glyph-name="calendar-black" d="M469.333 362.667v85.333h85.333v-85.333h-85.333zM298.667 362.667v85.333h85.333v-85.333h-85.333zM640 362.667v85.333h85.333v-85.333h-85.333zM469.333 192v85.333h85.333v-85.333h-85.333zM298.667 192v85.333h85.333v-85.333h-85.333zM640 192v85.333h85.333v-85.333h-85.333zM128 21.333v768h128v85.333h85.333v-85.333h341.333v85.333h85.333v-85.333h128v-768h-768zM213.333 106.667h597.333v426.667h-597.333v-426.667z" />
<glyph unicode="&#xe915;" glyph-name="calendar-white" d="M469.333 362.667v85.333h85.333v-85.333h-85.333zM298.667 362.667v85.333h85.333v-85.333h-85.333zM640 362.667v85.333h85.333v-85.333h-85.333zM469.333 192v85.333h85.333v-85.333h-85.333zM298.667 192v85.333h85.333v-85.333h-85.333zM640 192v85.333h85.333v-85.333h-85.333zM128 21.333v768h128v85.333h85.333v-85.333h341.333v85.333h85.333v-85.333h128v-768h-768zM213.333 106.667h597.333v426.667h-597.333v-426.667z" />
<glyph unicode="&#xe916;" glyph-name="calendar" d="M469.333 362.667v85.333h85.333v-85.333h-85.333zM298.667 362.667v85.333h85.333v-85.333h-85.333zM640 362.667v85.333h85.333v-85.333h-85.333zM469.333 192v85.333h85.333v-85.333h-85.333zM298.667 192v85.333h85.333v-85.333h-85.333zM640 192v85.333h85.333v-85.333h-85.333zM128 21.333v768h128v85.333h85.333v-85.333h341.333v85.333h85.333v-85.333h128v-768h-768zM213.333 106.667h597.333v426.667h-597.333v-426.667z" />
<glyph unicode="&#xe917;" glyph-name="cert-white" horiz-adv-x="896" d="M0 64h896v-128h-896v128zM294.4 236.8l-294.4 294.4 128 121.6 166.4-166.4 473.6 473.6 128-128-601.6-595.2z" />
<glyph unicode="&#xe918;" glyph-name="cert" horiz-adv-x="896" d="M0 64h896v-128h-896v128zM294.4 236.8l-294.4 294.4 128 121.6 166.4-166.4 473.6 473.6 128-128-601.6-595.2z" />
<glyph unicode="&#xe919;" glyph-name="chevron-down-white" horiz-adv-x="1792" d="M11.691 798.891l151.467 151.467 701.952-701.867 701.781 701.867 151.381-151.467-853.333-853.333-853.333 853.333z" />
<glyph unicode="&#xe91a;" glyph-name="chevron-down" horiz-adv-x="1792" d="M11.691 798.891l151.467 151.467 701.952-701.867 701.781 701.867 151.381-151.467-853.333-853.333-853.333 853.333z" />
<glyph unicode="&#xe91b;" glyph-name="chevron-left-blue" horiz-adv-x="666" d="M524.8 960l90.88-90.88-421.119-421.12 421.119-421.12-90.88-90.88-511.999 512 511.999 512z" />
<glyph unicode="&#xe91c;" glyph-name="chevron-left-grey" horiz-adv-x="666" d="M524.8 960l90.88-90.88-421.119-421.12 421.119-421.12-90.88-90.88-511.999 512 511.999 512z" />
<glyph unicode="&#xe91d;" glyph-name="chevron-left-light-grey" horiz-adv-x="717" d="M536.32 960l90.88-90.88-421.12-421.12 421.12-421.12-90.88-90.88-512 512 512 512z" />
<glyph unicode="&#xe91e;" glyph-name="chevron-left-white" horiz-adv-x="666" d="M524.8 960l90.88-90.88-421.12-421.12 421.12-421.12-90.88-90.88-512 512 512 512z" />
<glyph unicode="&#xe91f;" glyph-name="chevron-left" horiz-adv-x="666" d="M524.8 960l90.88-90.88-421.12-421.12 421.12-421.12-90.88-90.88-512 512 512 512z" />
<glyph unicode="&#xe920;" glyph-name="chevron-right-blue" horiz-adv-x="666" d="M180.48-64l-90.88 90.88 421.12 421.12-421.12 421.12 90.88 90.88 512-512-512-512z" />
<glyph unicode="&#xe921;" glyph-name="chevron-right-light-grey" horiz-adv-x="717" d="M180.48-64l-90.88 90.88 421.12 421.12-421.12 421.12 90.88 90.88 512-512-512-512z" />
<glyph unicode="&#xe922;" glyph-name="chevron-right-white" horiz-adv-x="717" d="M154.88-64l-90.88 90.88 421.12 421.12-421.12 421.12 90.88 90.88 512-512-512-512z" />
<glyph unicode="&#xe923;" glyph-name="chevron-right" horiz-adv-x="717" d="M154.88-64l-90.88 90.88 421.12 421.12-421.12 421.12 90.88 90.88 512-512-512-512z" />
<glyph unicode="&#xe924;" glyph-name="chevron-up-white" horiz-adv-x="1792" d="M1718.357 97.024l-151.467-151.467-701.867 701.867-701.867-701.867-151.467 151.467 853.333 853.333 853.333-853.333z" />
<glyph unicode="&#xe925;" glyph-name="chevron-up" horiz-adv-x="1792" d="M1718.357 97.024l-151.467-151.467-701.867 701.867-701.867-701.867-151.467 151.467 853.333 853.333 853.333-853.333z" />
<glyph unicode="&#xe926;" glyph-name="clock-deep-blue" horiz-adv-x="1117" d="M703.674 247.389l60.695 59.671-160.396 157.882v196.282h-86.714v-230.4l186.415-183.482zM560.593 21.178c-0.81-0.006-1.769-0.009-2.728-0.009-60.063 0-117.235 12.379-169.103 34.726l2.777-1.065c-53.391 22.621-99.046 53.383-137.709 91.255l0.074-0.073c-38.315 37.852-69.532 82.786-91.542 132.693l-1.084 2.754c-21.624 48.266-34.219 104.609-34.219 163.893 0 0.881 0.003 1.762 0.008 2.643l-0.001-0.136c-0.005 0.776-0.008 1.694-0.008 2.612 0 59.244 12.578 115.55 35.209 166.394l-1.036-2.606c23.093 52.661 54.31 97.596 92.582 135.405l0.043 0.043c38.607 37.807 84.275 68.584 134.817 90.143l2.865 1.086c49.090 21.253 106.256 33.615 166.309 33.615 0.965 0 1.929-0.003 2.892-0.010l-0.148 0.001c0.861 0.006 1.879 0.010 2.898 0.010 60.012 0 117.141-12.345 168.986-34.634l-2.784 1.065c53.388-22.651 99.040-53.426 137.71-91.302l-0.075 0.073c38.314-37.852 69.531-82.786 91.542-132.693l1.084-2.754c21.595-48.238 34.173-104.544 34.173-163.789 0-0.935-0.003-1.868-0.009-2.801l0.001 0.143c0.005-0.776 0.008-1.694 0.008-2.612 0-59.244-12.578-115.55-35.209-166.394l1.036 2.606c-23.094-52.661-54.311-97.595-92.582-135.405l-0.043-0.042c-38.589-37.798-84.244-68.561-134.773-90.099l-2.861-1.084c-49.058-21.253-106.189-33.616-166.208-33.616-1.017 0-2.032 0.004-3.047 0.011l0.156-0.001z" />
<glyph unicode="&#xe927;" glyph-name="clock-white" horiz-adv-x="1117" d="M703.67 247.436l60.695 59.732-160.405 157.868v196.267h-86.705v-230.399l186.415-183.468zM560.607 21.304c-59.969 0-116.326 11.208-169.070 33.62-52.745 22.388-98.626 52.778-137.642 91.178s-69.897 83.558-92.643 135.466c-22.774 51.912-34.161 107.38-34.161 166.4 0 59.025 11.387 114.491 34.161 166.402 22.745 51.911 53.626 97.067 92.643 135.467s84.898 68.807 137.642 91.221c52.744 22.386 109.101 33.579 169.070 33.579 59.974 0 116.331-11.193 169.072-33.579 52.745-22.414 98.625-52.821 137.644-91.221 39.014-38.4 69.897-83.556 92.644-135.467 22.775-51.911 34.16-107.378 34.16-166.402 0-59.020-11.385-114.488-34.16-166.4-22.747-51.907-53.63-97.066-92.644-135.466-39.019-38.4-84.899-68.79-137.644-91.178-52.741-22.412-109.098-33.62-169.072-33.62z" />
<glyph unicode="&#xe928;" glyph-name="clock" horiz-adv-x="1117" d="M703.67 247.436l60.695 59.732-160.405 157.868v196.267h-86.705v-230.399l186.415-183.468zM560.607 21.304c-59.969 0-116.326 11.208-169.070 33.62-52.745 22.388-98.626 52.778-137.642 91.178s-69.897 83.558-92.643 135.466c-22.774 51.912-34.161 107.38-34.161 166.4 0 59.025 11.387 114.491 34.161 166.402 22.745 51.911 53.626 97.067 92.643 135.467s84.898 68.807 137.642 91.221c52.744 22.386 109.101 33.579 169.070 33.579 59.974 0 116.331-11.193 169.072-33.579 52.745-22.414 98.625-52.821 137.644-91.221 39.014-38.4 69.897-83.556 92.644-135.467 22.775-51.911 34.16-107.378 34.16-166.402 0-59.020-11.385-114.488-34.16-166.4-22.747-51.907-53.63-97.066-92.644-135.466-39.019-38.4-84.899-68.79-137.644-91.178-52.741-22.412-109.098-33.62-169.072-33.62z" />
<glyph unicode="&#xe929;" glyph-name="close-blue" d="M142.35-27.213l-105.6 105.6 369.6 369.6-369.6 369.6 105.6 105.6 369.6-369.6 369.599 369.6 105.6-105.6-369.599-369.6 369.599-369.6-105.6-105.6-369.599 369.6-369.6-369.6z" />
<glyph unicode="&#xe92a;" glyph-name="close-grey" d="M142.35-27.213l-105.6 105.6 369.6 369.6-369.6 369.6 105.6 105.6 369.6-369.6 369.599 369.6 105.6-105.6-369.599-369.6 369.599-369.6-105.6-105.6-369.599 369.6-369.6-369.6z" />
<glyph unicode="&#xe92b;" glyph-name="close-white" d="M142.4-27.2l-105.6 105.6 369.6 369.6-369.6 369.6 105.6 105.6 369.6-369.6 369.6 369.6 105.6-105.6-369.6-369.6 369.6-369.6-105.6-105.6-369.6 369.6-369.6-369.6z" />
<glyph unicode="&#xe92c;" glyph-name="close" d="M142.4-27.2l-105.6 105.6 369.6 369.6-369.6 369.6 105.6 105.6 369.6-369.6 369.6 369.6 105.6-105.6-369.6-369.6 369.6-369.6-105.6-105.6-369.6 369.6-369.6-369.6z" />
<glyph unicode="&#xe92d;" glyph-name="depth-white" horiz-adv-x="964" d="M0-9.186v120.471h963.765v-120.471h-963.765zM0 839.529v120.471h963.765v-120.471h-963.765zM481.882 233.803l-240.941 240.941 84.329 84.329 96.376-96.376v192.753h120.471v-192.753l96.376 96.376 84.329-84.329-240.941-240.941z" />
<glyph unicode="&#xe92e;" glyph-name="depth" horiz-adv-x="964" d="M0-9.186v120.471h963.765v-120.471h-963.765zM0 839.529v120.471h963.765v-120.471h-963.765zM481.882 233.803l-240.941 240.941 84.329 84.329 96.376-96.376v192.753h120.471v-192.753l96.376 96.376 84.329-84.329-240.941-240.941z" />
<glyph unicode="&#xe92f;" glyph-name="download-blue" horiz-adv-x="916" d="M479.663 281.357l-269.474 269.474 75.453 78.147 140.126-140.126v439.242h107.789v-439.242l140.126 140.126 75.453-78.147-269.474-269.474zM48.505-42.011v107.897h862.316v-107.897h-862.316z" />
<glyph unicode="&#xe930;" glyph-name="download-gray" horiz-adv-x="916" d="M479.663 281.357l-269.474 269.474 75.453 78.147 140.126-140.126v439.242h107.789v-439.242l140.126 140.126 75.453-78.147-269.474-269.474zM48.505-42.011v107.897h862.316v-107.897h-862.316z" />
<glyph unicode="&#xe931;" glyph-name="download-white" horiz-adv-x="916" d="M479.663 281.357l-269.474 269.474 75.453 78.147 140.126-140.126v439.242h107.789v-439.242l140.126 140.126 75.453-78.147-269.474-269.474zM48.505-42.011v107.897h862.316v-107.897h-862.316z" />
<glyph unicode="&#xe932;" glyph-name="download" horiz-adv-x="916" d="M479.663 281.357l-269.474 269.474 75.453 78.147 140.126-140.126v439.242h107.789v-439.242l140.126 140.126 75.453-78.147-269.474-269.474zM48.505-42.011v107.897h862.316v-107.897h-862.316z" />
<glyph unicode="&#xe933;" glyph-name="electrical-white" horiz-adv-x="626" d="M186.311-64l56.889 398.222h-243.2l356.978 625.778h56.889l-56.889-398.222h243.2l-356.978-625.778h-56.889z" />
<glyph unicode="&#xe934;" glyph-name="electrical" horiz-adv-x="626" d="M186.311-64l56.889 398.222h-243.2l356.978 625.778h56.889l-56.889-398.222h243.2l-356.978-625.778h-56.889z" />
<glyph unicode="&#xe935;" glyph-name="email-gray" horiz-adv-x="1325" d="M0-62.193v1022.193h1325.176v-1022.193h-1325.176zM662.588 408.968l551.575 343.401v100.593l-551.575-338.522-551.575 338.583v-100.593l551.575-343.522z" />
<glyph unicode="&#xe936;" glyph-name="enlarge-white" horiz-adv-x="1252" d="M1109.333 632.889v184.889h-184.889v118.044h302.933v-302.933h-118.044zM24.178 632.889v302.933h302.933v-118.044h-184.889v-184.889h-118.044zM924.444-39.822v118.044h184.889v184.889h118.044v-302.933h-302.933zM24.178-39.822v302.933h118.044v-184.889h184.889v-118.044h-302.933zM227.556 163.556v568.889h796.444v-568.889h-796.444z" />
<glyph unicode="&#xe937;" glyph-name="enlarge" horiz-adv-x="1252" d="M1109.333 632.889v184.889h-184.889v118.044h302.99v-302.933h-118.101zM24.235 632.889v302.933h302.876v-118.044h-184.889v-184.889h-117.988zM924.444-39.822v118.044h184.889v184.889h118.044v-302.933h-302.933zM24.178-39.822v302.933h118.044v-184.889h184.889v-118.044h-302.876zM227.556 163.556v568.889h796.444v-568.889h-796.444z" />
<glyph unicode="&#xe938;" glyph-name="envelope-grey" horiz-adv-x="1325" d="M0-62.193v1022.193h1325.176v-1022.193h-1325.176zM662.588 408.968l551.575 343.401v100.593l-551.575-338.522-551.575 338.583v-100.593l551.575-343.522z" />
<glyph unicode="&#xe939;" glyph-name="envelope-white" horiz-adv-x="1325" d="M0-62.193v1022.193h1325.176v-1022.193h-1325.176zM662.588 408.968l551.575 343.401v100.593l-551.575-338.522-551.575 338.583v-100.593l551.575-343.522z" />
<glyph unicode="&#xe93a;" glyph-name="envelope" horiz-adv-x="1325" d="M0-62.193v1022.193h1325.176v-1022.193h-1325.176zM662.588 408.968l551.575 343.401v100.593l-551.575-338.522-551.575 338.583v-100.593l551.575-343.522z" />
<glyph unicode="&#xe93b;" glyph-name="error-white" horiz-adv-x="1186" d="M0-64l592.842 1024 592.842-1024h-1185.684zM592.842 97.684c0.382-0.010 0.831-0.016 1.282-0.016 14.534 0 27.68 5.943 37.139 15.532l0.006 0.006c9.562 9.452 15.484 22.57 15.484 37.070 0 0.458-0.006 0.915-0.018 1.37l0.001-0.067c0.010 0.388 0.016 0.845 0.016 1.303 0 14.5-5.922 27.618-15.479 37.065l-0.005 0.005c-9.466 9.594-22.611 15.537-37.145 15.537-0.451 0-0.9-0.006-1.348-0.017l0.066 0.001c-0.386 0.010-0.84 0.016-1.295 0.016-14.513 0-27.637-5.944-37.071-15.531l-0.007-0.007c-9.594-9.441-15.538-22.565-15.538-37.078 0-0.455 0.006-0.909 0.017-1.362l-0.001 0.067c0-15.252 5.174-28.025 15.522-38.373 9.441-9.594 22.565-15.538 37.078-15.538 0.455 0 0.909 0.006 1.362 0.017l-0.067-0.001zM538.947 259.368h107.789v269.474h-107.789v-269.474z" />
<glyph unicode="&#xe93c;" glyph-name="error" horiz-adv-x="1186" d="M0-64l592.842 1024 592.842-1024h-1185.684zM592.842 97.684c0.382-0.010 0.831-0.016 1.282-0.016 14.534 0 27.68 5.943 37.139 15.532l0.006 0.006c9.562 9.452 15.484 22.57 15.484 37.070 0 0.458-0.006 0.915-0.018 1.37l0.001-0.067c0.010 0.388 0.016 0.845 0.016 1.303 0 14.5-5.922 27.618-15.479 37.065l-0.005 0.005c-9.466 9.594-22.611 15.537-37.145 15.537-0.451 0-0.9-0.006-1.348-0.017l0.066 0.001c-0.386 0.010-0.84 0.016-1.295 0.016-14.513 0-27.637-5.944-37.071-15.531l-0.007-0.007c-9.594-9.441-15.538-22.565-15.538-37.078 0-0.455 0.006-0.909 0.017-1.362l-0.001 0.067c0-15.252 5.174-28.025 15.522-38.373 9.441-9.594 22.565-15.538 37.078-15.538 0.455 0 0.909 0.006 1.362 0.017l-0.067-0.001zM538.947 259.368h107.789v269.474h-107.789v-269.474z" />
<glyph unicode="&#xe93d;" glyph-name="expert-white" d="M840.786 919.040h110.715c37.356 0 61.604-22.651 69.059-59.474 3.441-16.671 2.826-32.768 2.826-49.111 0.287-60.744-0.942-121.774 0.614-182.518 0.942-39.322-28.918-70.492-69.059-69.878-37.97 0.655-75.899 0-113.869 0.328-0.202 0.006-0.439 0.009-0.678 0.009-5.764 0-11.059-2.011-15.22-5.37l0.046 0.036c-21.791-17.613-44.196-34.652-65.946-52.593-8.397-6.922-17.449-9.134-26.46-4.383-8.547 4.565-14.277 13.403-14.336 23.585v0.008c-0.149 4.784-0.234 10.41-0.234 16.056s0.085 11.272 0.253 16.878l-0.020-0.822c0 4.71-0.901 6.922-6.185 7.864-27.689 5.652-46.039 27.034-48.538 55.706-0.287 3.768-0.287 7.537-0.287 11.305v222.495c0 16.056 2.785 31.171 12.411 44.687 12.452 17.613 29.901 25.805 51.036 25.805 37.97-0.614 75.899-0.614 113.869-0.614zM822.764 723.62c0-5.98-0.369-12.288 0-18.268 0.573-10.076 9.626-18.883 18.924-19.21 9.339-0.287 19.907 8.52 19.005 18.596-1.229 13.189 4.669 18.842 15.565 24.863 32.031 17.285 44.442 53.821 32.031 86.835-10.313 27.472-36.36 46.668-66.889 46.668-4.84 0-9.566-0.482-14.135-1.402l0.456 0.077c-32.072-6.636-56.934-36.864-57.262-68.608 0-11.059 8.11-20.48 18.35-21.094 10.609-0.614 17.736 5.652 19.907 17.285l0.942 7.905c1.556 16.671 14.336 29.245 30.474 29.901 0.527 0.031 1.143 0.049 1.763 0.049 15.84 0 28.987-11.527 31.511-26.65l0.026-0.187c0.362-1.814 0.57-3.9 0.57-6.034 0-14.395-9.436-26.587-22.46-30.727l-0.228-0.063c-3.686-1.229-7.741-1.229-11.469-2.171-9.732-1.613-17.112-9.809-17.448-19.79l-0.001-0.034c0.328-5.98 0.328-11.96 0.328-17.94zM842.342 621.015c9.953 0 20.193 10.076 19.907 19.825-0.328 11.018-9.667 20.48-20.234 20.48-10.494-0.004-18.999-8.511-18.999-19.005 0-0.403 0.013-0.804 0.037-1.201l-0.003 0.054c0-10.732 9.011-20.152 19.251-20.152zM419.553-34.222c-84.296 0-168.591-0.287-252.6 0-58.163 0.328-103.629 32.768-120.095 84.664-10.24 32.399-7.455 63.898 8.724 93.471 70.287 129.679 177.644 206.438 322.929 224.707 167.035 21.094 337.51-74.588 408.453-227.205 34.202-73.646-4.669-155.484-82.452-172.155-9.497-2.023-20.408-3.181-31.589-3.181-1.034 0-2.065 0.010-3.094 0.030l0.154-0.002c-83.354-0.328-166.707-0.328-250.429-0.328zM416.768 830.28c107.602-0.942 190.669-84.337 189.727-190.382-0.901-103.219-85.524-187.269-187.884-186.327-102.646 0.983-185.713 86.876-184.484 191.037 1.556 102.932 83.681 186.614 182.641 185.672z" />
<glyph unicode="&#xe93e;" glyph-name="expert" d="M840.786 919.040h110.715c37.356 0 61.604-22.651 69.059-59.474 3.441-16.671 2.826-32.768 2.826-49.111 0.287-60.744-0.942-121.774 0.614-182.518 0.942-39.322-28.918-70.492-69.059-69.878-37.97 0.655-75.899 0-113.869 0.328-0.202 0.006-0.439 0.009-0.678 0.009-5.764 0-11.059-2.011-15.22-5.37l0.046 0.036c-21.791-17.613-44.196-34.652-65.946-52.593-8.397-6.922-17.449-9.134-26.46-4.383-8.547 4.565-14.277 13.403-14.336 23.585v0.008c-0.149 4.784-0.234 10.41-0.234 16.056s0.085 11.272 0.253 16.878l-0.020-0.822c0 4.71-0.901 6.922-6.185 7.864-27.689 5.652-46.039 27.034-48.538 55.706-0.287 3.768-0.287 7.537-0.287 11.305v222.495c0 16.056 2.785 31.171 12.411 44.687 12.452 17.613 29.901 25.805 51.036 25.805 37.97-0.614 75.899-0.614 113.869-0.614zM822.764 723.62c0-5.98-0.369-12.288 0-18.268 0.573-10.076 9.626-18.883 18.924-19.21 9.339-0.287 19.907 8.52 19.005 18.596-1.229 13.189 4.669 18.842 15.565 24.863 32.031 17.285 44.442 53.821 32.031 86.835-10.313 27.472-36.36 46.668-66.889 46.668-4.84 0-9.566-0.482-14.135-1.402l0.456 0.077c-32.072-6.636-56.934-36.864-57.262-68.608 0-11.059 8.11-20.48 18.35-21.094 10.609-0.614 17.736 5.652 19.907 17.285l0.942 7.905c1.556 16.671 14.336 29.245 30.474 29.901 0.527 0.031 1.143 0.049 1.763 0.049 15.84 0 28.987-11.527 31.511-26.65l0.026-0.187c0.362-1.814 0.57-3.9 0.57-6.034 0-14.395-9.436-26.587-22.46-30.727l-0.228-0.063c-3.686-1.229-7.741-1.229-11.469-2.171-9.732-1.613-17.112-9.809-17.448-19.79l-0.001-0.034c0.328-5.98 0.328-11.96 0.328-17.94zM842.342 621.015c9.953 0 20.193 10.076 19.907 19.825-0.328 11.018-9.667 20.48-20.234 20.48-10.494-0.004-18.999-8.511-18.999-19.005 0-0.403 0.013-0.804 0.037-1.201l-0.003 0.054c0-10.732 9.011-20.152 19.251-20.152zM419.553-34.222c-84.296 0-168.591-0.287-252.6 0-58.163 0.328-103.629 32.768-120.095 84.664-10.24 32.399-7.455 63.898 8.724 93.471 70.287 129.679 177.644 206.438 322.929 224.707 167.035 21.094 337.51-74.588 408.453-227.205 34.202-73.646-4.669-155.484-82.452-172.155-9.497-2.023-20.408-3.181-31.589-3.181-1.034 0-2.065 0.010-3.094 0.030l0.154-0.002c-83.354-0.328-166.707-0.328-250.429-0.328zM416.768 830.28c107.602-0.942 190.669-84.337 189.727-190.382-0.901-103.219-85.524-187.269-187.884-186.327-102.646 0.983-185.713 86.876-184.484 191.037 1.556 102.932 83.681 186.614 182.641 185.672z" />
<glyph unicode="&#xe93f;" glyph-name="external-link-white" d="M0-64v1024h512v-113.778h-398.222v-796.444h796.444v398.222h113.778v-512h-1024zM381.156 237.511l-79.644 79.644 529.067 529.067h-204.8v113.778h398.222v-398.222h-113.778v204.8l-529.067-529.067z" />
<glyph unicode="&#xe940;" glyph-name="external-link" d="M0-64v1024h512v-113.778h-398.222v-796.444h796.444v398.222h113.778v-512h-1024zM381.156 237.511l-79.644 79.644 529.067 529.067h-204.8v113.778h398.222v-398.222h-113.778v204.8l-529.067-529.067z" />
<glyph unicode="&#xe941;" glyph-name="eye-white" horiz-adv-x="1502" d="M682.667 215.211c77.551 0 143.497 27.238 197.837 81.51 54.272 54.272 81.442 120.218 81.442 197.837 0 77.551-27.17 143.497-81.442 197.837-54.34 54.272-120.286 81.442-197.837 81.442s-143.497-27.17-197.837-81.442c-54.272-54.34-81.442-120.286-81.442-197.837 0-77.619 27.17-143.565 81.442-197.837 54.34-54.34 120.286-81.442 197.837-81.442zM682.667 326.963c-0.84-0.016-1.832-0.025-2.825-0.025-45.415 0-86.45 18.751-115.786 48.934l-0.037 0.038c-30.221 29.373-48.972 70.408-48.972 115.822 0 0.993 0.009 1.985 0.027 2.974l-0.002-0.149c0 46.558 16.384 86.084 48.947 118.716 29.372 30.141 70.363 48.837 115.72 48.837 1.029 0 2.056-0.010 3.081-0.029l-0.154 0.002c0.877 0.017 1.912 0.027 2.948 0.027 45.394 0 86.422-18.695 115.804-48.805l0.032-0.033c30.103-29.408 48.77-70.409 48.77-115.77 0-1.060-0.010-2.117-0.030-3.171l0.002 0.158c0-46.49-16.247-86.016-48.811-118.579-29.405-30.222-70.467-48.972-115.909-48.972-0.987 0-1.972 0.009-2.955 0.026l0.148-0.002zM682.667 29.116c-151.006 0-288.563 42.121-412.672 126.43-124.177 84.309-214.153 197.291-269.995 339.012 55.842 141.722 145.818 254.703 269.995 339.012 124.109 84.309 261.666 126.43 412.672 126.43s288.563-42.121 412.74-126.43c124.109-84.309 214.084-197.291 269.926-339.012-55.842-141.722-145.818-254.703-269.926-339.012-124.177-84.309-261.734-126.43-412.74-126.43z" />
<glyph unicode="&#xe942;" glyph-name="eye" horiz-adv-x="1502" d="M682.667 215.211c77.551 0 143.497 27.238 197.837 81.51 54.272 54.272 81.442 120.218 81.442 197.837 0 77.551-27.17 143.497-81.442 197.837-54.34 54.272-120.286 81.442-197.837 81.442s-143.497-27.17-197.837-81.442c-54.272-54.34-81.442-120.286-81.442-197.837 0-77.619 27.17-143.565 81.442-197.837 54.34-54.34 120.286-81.442 197.837-81.442zM682.667 326.963c-0.84-0.016-1.832-0.025-2.825-0.025-45.415 0-86.45 18.751-115.786 48.934l-0.037 0.038c-30.221 29.373-48.972 70.408-48.972 115.822 0 0.993 0.009 1.985 0.027 2.974l-0.002-0.149c0 46.558 16.384 86.084 48.947 118.716 29.372 30.141 70.363 48.837 115.72 48.837 1.029 0 2.056-0.010 3.081-0.029l-0.154 0.002c0.877 0.017 1.912 0.027 2.948 0.027 45.394 0 86.422-18.695 115.804-48.805l0.032-0.033c30.103-29.408 48.77-70.409 48.77-115.77 0-1.060-0.010-2.117-0.030-3.171l0.002 0.158c0-46.49-16.247-86.016-48.811-118.579-29.405-30.222-70.467-48.972-115.909-48.972-0.987 0-1.972 0.009-2.955 0.026l0.148-0.002zM682.667 29.116c-151.006 0-288.563 42.121-412.672 126.43-124.177 84.309-214.153 197.291-269.995 339.012 55.842 141.722 145.818 254.703 269.995 339.012 124.109 84.309 261.666 126.43 412.672 126.43s288.563-42.121 412.74-126.43c124.109-84.309 214.084-197.291 269.926-339.012-55.842-141.722-145.818-254.703-269.926-339.012-124.177-84.309-261.734-126.43-412.74-126.43z" />
<glyph unicode="&#xe943;" glyph-name="facebook-white" horiz-adv-x="1138" d="M300.772 414.606h111.104v-462.108c0-9.102 7.339-16.498 16.384-16.498h188.359c9.045 0 16.327 7.396 16.327 16.498v459.947h127.772c8.306 0 15.246 6.258 16.213 14.62l19.399 170.098c0.076 0.596 0.119 1.285 0.119 1.985 0 4.194-1.554 8.024-4.118 10.948l0.016-0.019c-2.996 3.391-7.355 5.518-12.211 5.518-0.007 0-0.014 0-0.021 0h-147.114v106.667c0 32.142 17.067 48.412 50.916 48.412h96.142c9.102 0 16.384 7.396 16.384 16.498v156.274c0 9.102-7.339 16.498-16.327 16.498h-132.551c-0.967 0-3.015 0.114-6.087 0.114-23.040 0-102.969-4.551-166.116-63.26-69.973-65.024-60.302-142.905-57.913-156.444v-124.7h-116.622c-9.056-0.032-16.384-7.381-16.384-16.441 0-0.020 0-0.040 0-0.060v0.003-167.936c0-9.102 7.339-16.498 16.327-16.498z" />
<glyph unicode="&#xe944;" glyph-name="facebook" horiz-adv-x="1138" d="M300.772 414.606h111.104v-462.108c0-9.102 7.339-16.498 16.384-16.498h188.359c9.045 0 16.327 7.396 16.327 16.498v459.947h127.772c8.306 0 15.246 6.258 16.213 14.62l19.399 170.098c0.076 0.596 0.119 1.285 0.119 1.985 0 4.194-1.554 8.024-4.118 10.948l0.016-0.019c-2.996 3.391-7.355 5.518-12.211 5.518-0.007 0-0.014 0-0.021 0h-147.114v106.667c0 32.142 17.067 48.412 50.916 48.412h96.142c9.102 0 16.384 7.396 16.384 16.498v156.274c0 9.102-7.339 16.498-16.327 16.498h-132.551c-0.967 0-3.015 0.114-6.087 0.114-23.040 0-102.969-4.551-166.116-63.26-69.973-65.024-60.302-142.905-57.913-156.444v-124.7h-116.622c-9.056-0.032-16.384-7.381-16.384-16.441 0-0.020 0-0.040 0-0.060v0.003-167.936c0-9.102 7.339-16.498 16.327-16.498z" />
<glyph unicode="&#xe945;" glyph-name="filter-white" horiz-adv-x="819" d="M204.8 396.8v367.36l-131.84-131.84-72.96 71.68 256 256 256-256-72.96-71.68-131.84 131.84v-367.36h-102.4zM563.2-64l-256 256 72.96 71.68 131.84-131.84v367.36h102.4v-367.36l131.84 131.84 72.96-71.68-256-256z" />
<glyph unicode="&#xe946;" glyph-name="filter" horiz-adv-x="819" d="M204.8 396.8v367.36l-131.84-131.84-72.96 71.68 256 256 256-256-72.96-71.68-131.84 131.84v-367.36h-102.4zM563.2-64l-256 256 72.96 71.68 131.84-131.84v367.36h102.4v-367.36l131.84 131.84 72.96-71.68-256-256z" />
<glyph unicode="&#xe947;" glyph-name="flow-white" horiz-adv-x="890" d="M389.565-41.739l-62.33 63.443 81.252 81.252h-149.148c-9.814-26.263-26.553-48.037-48.008-63.752l-0.387-0.27c-20.879-15.633-47.213-25.032-75.743-25.032-0.575 0-1.15 0.004-1.723 0.011l0.087-0.001c-0.684-0.013-1.49-0.020-2.297-0.020-36.186 0-68.886 14.922-92.284 38.949l-0.027 0.028c-24.055 23.425-38.977 56.125-38.977 92.311 0 0.808 0.007 1.614 0.022 2.418l-0.002-0.121c0 28.939 8.326 54.762 25.021 77.379s38.066 38.734 64.022 48.395v371.757c-26.27 9.821-48.046 26.576-63.751 48.051l-0.271 0.389c-15.632 20.859-25.032 47.174-25.032 75.684 0 0.58 0.004 1.16 0.012 1.738l-0.001-0.088c0 37.087 13 68.653 38.957 94.609 23.425 24.055 56.125 38.977 92.311 38.977 0.808 0 1.614-0.007 2.418-0.022l-0.121 0.002c28.939 0 54.762-8.326 77.379-25.021s38.734-38.066 48.395-64.022h149.148l-81.252 81.252 62.33 63.443 189.217-189.217-189.217-189.217-62.33 63.443 81.252 81.252h-149.148c-13.291-38.327-42.925-67.961-80.34-80.976l-0.912-0.276v-371.757c38.331-13.285 67.967-42.922 80.976-80.34l0.276-0.912h149.148l-81.252 81.252 62.33 63.443 189.217-189.217-189.217-189.217zM756.87 13.913c-0.684-0.013-1.49-0.020-2.297-0.020-36.186 0-68.886 14.922-92.284 38.949l-0.027 0.028c-24.055 23.425-38.977 56.125-38.977 92.311 0 0.808 0.007 1.614 0.022 2.418l-0.002-0.121c0 29.696 8.326 55.83 25.021 78.447 15.807 21.739 37.67 38.212 63.105 47.049l0.918 0.277v371.757c-26.353 9.115-48.215 25.588-63.762 46.952l-0.26 0.375c-15.642 21.057-25.040 47.564-25.040 76.267 0 0.767 0.007 1.532 0.020 2.295l-0.002-0.115c0 37.087 13 68.653 38.957 94.609 23.425 24.055 56.125 38.977 92.311 38.977 0.808 0 1.614-0.007 2.418-0.022l-0.121 0.002c37.087 0 68.653-13 94.609-38.957s38.957-57.522 38.957-94.609c0.012-0.649 0.018-1.414 0.018-2.181 0-28.702-9.398-55.21-25.285-76.612l0.245 0.346c-15.807-21.739-37.67-38.212-63.105-47.049l-0.918-0.277v-371.757c26.263-9.814 48.037-26.553 63.752-48.008l0.27-0.387c16.696-22.662 25.021-48.44 25.021-77.379 0-37.087-13-68.653-38.957-94.609-23.425-24.055-56.125-38.977-92.311-38.977-0.808 0-1.614 0.007-2.418 0.022l0.121-0.002zM133.565 102.957c0.315-0.008 0.687-0.013 1.059-0.013 12.006 0 22.866 4.91 30.68 12.83l0.005 0.005c7.899 7.809 12.791 18.645 12.791 30.623 0 0.379-0.005 0.756-0.015 1.132l0.001-0.056c0.009 0.321 0.013 0.698 0.013 1.076 0 11.979-4.892 22.815-12.787 30.619l-0.004 0.004c-7.82 7.926-18.679 12.835-30.685 12.835-0.372 0-0.744-0.005-1.114-0.014l0.055 0.001c-0.315 0.008-0.687 0.013-1.059 0.013-12.006 0-22.866-4.91-30.68-12.83l-0.005-0.005c-7.899-7.809-12.791-18.645-12.791-30.623 0-0.379 0.005-0.756 0.015-1.132l-0.001 0.056c0-12.6 4.274-23.151 12.778-31.699 8.548-8.548 19.144-12.822 31.744-12.822zM756.87 102.957c12.6 0 23.151 4.274 31.699 12.822 7.925 7.799 12.836 18.641 12.836 30.63 0 0.376-0.005 0.751-0.014 1.125l0.001-0.055c0.008 0.319 0.013 0.694 0.013 1.070 0 11.989-4.91 22.831-12.83 30.624l-0.006 0.006c-7.799 7.925-18.641 12.836-30.63 12.836-0.376 0-0.751-0.005-1.125-0.014l0.055 0.001c-0.319 0.008-0.694 0.013-1.070 0.013-11.989 0-22.831-4.91-30.624-12.83l-0.006-0.006c-7.925-7.799-12.836-18.641-12.836-30.63 0-0.376 0.005-0.751 0.014-1.125l-0.001 0.055c0-12.6 4.274-23.151 12.822-31.699 7.799-7.925 18.641-12.836 30.63-12.836 0.376 0 0.751 0.005 1.125 0.014l-0.055-0.001zM133.565 726.261c0.317-0.008 0.691-0.013 1.066-0.013 11.996 0 22.849 4.891 30.675 12.788l0.003 0.003c7.9 7.829 12.791 18.683 12.791 30.678 0 0.375-0.005 0.748-0.014 1.121l0.001-0.055c0.008 0.317 0.013 0.691 0.013 1.066 0 11.996-4.891 22.849-12.788 30.675l-0.003 0.003c-7.829 7.9-18.683 12.791-30.678 12.791-0.375 0-0.748-0.005-1.121-0.014l0.055 0.001c-0.317 0.008-0.691 0.013-1.066 0.013-11.996 0-22.849-4.891-30.675-12.788l-0.003-0.003c-7.9-7.829-12.791-18.683-12.791-30.678 0-0.375 0.005-0.748 0.014-1.121l-0.001 0.055c-0.008-0.317-0.013-0.691-0.013-1.066 0-11.996 4.891-22.849 12.788-30.675l0.003-0.003c7.829-7.9 18.683-12.791 30.678-12.791 0.375 0 0.748 0.005 1.121 0.014l-0.055-0.001zM756.87 726.261c12.6 0 23.151 4.274 31.699 12.778 7.926 7.82 12.835 18.679 12.835 30.685 0 0.372-0.005 0.744-0.014 1.114l0.001-0.055c0.008 0.315 0.013 0.687 0.013 1.059 0 12.006-4.91 22.866-12.83 30.68l-0.005 0.005c-7.809 7.899-18.645 12.791-30.623 12.791-0.379 0-0.756-0.005-1.132-0.015l0.056 0.001c-0.321 0.009-0.698 0.013-1.076 0.013-11.979 0-22.815-4.892-30.619-12.787l-0.004-0.004c-7.926-7.82-12.835-18.679-12.835-30.685 0-0.372 0.005-0.744 0.014-1.114l-0.001 0.055c0-12.6 4.274-23.196 12.822-31.744 7.809-7.899 18.645-12.791 30.623-12.791 0.379 0 0.756 0.005 1.132 0.015l-0.056-0.001zM133.565 102.957c-0.315-0.008-0.687-0.013-1.059-0.013-12.006 0-22.866 4.91-30.68 12.83l-0.005 0.005c-7.899 7.809-12.791 18.645-12.791 30.623 0 0.379 0.005 0.756 0.015 1.132l-0.001-0.056c0 12.6 4.274 23.151 12.778 31.699 7.82 7.926 18.679 12.835 30.685 12.835 0.372 0 0.744-0.005 1.114-0.014l-0.055 0.001c12.6 0 23.196-4.274 31.744-12.822 7.899-7.809 12.791-18.645 12.791-30.623 0-0.379-0.005-0.756-0.015-1.132l0.001 0.056c0-12.6-4.274-23.151-12.778-31.699-7.82-7.926-18.679-12.835-30.685-12.835-0.372 0-0.744 0.005-1.114 0.014l0.055-0.001zM756.87 102.957c-0.319-0.008-0.694-0.013-1.070-0.013-11.989 0-22.831 4.91-30.624 12.83l-0.006 0.006c-7.925 7.799-12.836 18.641-12.836 30.63 0 0.376 0.005 0.751 0.014 1.125l-0.001-0.055c0 12.6 4.274 23.151 12.822 31.699 7.799 7.925 18.641 12.836 30.63 12.836 0.376 0 0.751-0.005 1.125-0.014l-0.055 0.001c12.6 0 23.151-4.274 31.699-12.822 7.925-7.799 12.836-18.641 12.836-30.63 0-0.376-0.005-0.751-0.014-1.125l0.001 0.055c0-12.6-4.274-23.151-12.822-31.699-7.799-7.925-18.641-12.836-30.63-12.836-0.376 0-0.751 0.005-1.125 0.014l0.055-0.001zM133.565 726.261c-0.317-0.008-0.691-0.013-1.066-0.013-11.996 0-22.849 4.891-30.675 12.788l-0.003 0.003c-7.9 7.829-12.791 18.683-12.791 30.678 0 0.375 0.005 0.748 0.014 1.121l-0.001-0.055c-0.008 0.317-0.013 0.691-0.013 1.066 0 11.996 4.891 22.849 12.788 30.675l0.003 0.003c7.829 7.9 18.683 12.791 30.678 12.791 0.375 0 0.748-0.005 1.121-0.014l-0.055 0.001c0.317 0.008 0.691 0.013 1.066 0.013 11.996 0 22.849-4.891 30.675-12.788l0.003-0.003c7.9-7.829 12.791-18.683 12.791-30.678 0-0.375-0.005-0.748-0.014-1.121l0.001 0.055c0.008-0.317 0.013-0.691 0.013-1.066 0-11.996-4.891-22.849-12.788-30.675l-0.003-0.003c-7.829-7.9-18.683-12.791-30.678-12.791-0.375 0-0.748 0.005-1.121 0.014l0.055-0.001zM756.87 726.261c-0.321-0.009-0.698-0.013-1.076-0.013-11.979 0-22.815 4.892-30.619 12.787l-0.004 0.004c-7.926 7.82-12.835 18.679-12.835 30.685 0 0.372 0.005 0.744 0.014 1.114l-0.001-0.055c0 12.6 4.274 23.196 12.822 31.744 7.809 7.899 18.645 12.791 30.623 12.791 0.379 0 0.756-0.005 1.132-0.015l-0.056 0.001c12.6 0 23.151-4.274 31.699-12.778 8.548-8.548 12.822-19.144 12.822-31.744 0.008-0.315 0.013-0.687 0.013-1.059 0-12.006-4.91-22.866-12.83-30.68l-0.005-0.005c-7.809-7.899-18.645-12.791-30.623-12.791-0.379 0-0.756 0.005-1.132 0.015l0.056-0.001z" />
<glyph unicode="&#xe948;" glyph-name="flow" horiz-adv-x="890" d="M389.565-41.739l-62.33 63.443 81.252 81.252h-149.148c-9.814-26.263-26.553-48.037-48.008-63.752l-0.387-0.27c-20.879-15.633-47.213-25.032-75.743-25.032-0.575 0-1.15 0.004-1.723 0.011l0.087-0.001c-0.684-0.013-1.49-0.020-2.297-0.020-36.186 0-68.886 14.922-92.284 38.949l-0.027 0.028c-24.055 23.425-38.977 56.125-38.977 92.311 0 0.808 0.007 1.614 0.022 2.418l-0.002-0.121c0 28.939 8.326 54.762 25.021 77.379s38.066 38.734 64.022 48.395v371.757c-26.27 9.821-48.046 26.576-63.751 48.051l-0.271 0.389c-15.632 20.859-25.032 47.174-25.032 75.684 0 0.58 0.004 1.16 0.012 1.738l-0.001-0.088c0 37.087 13 68.653 38.957 94.609 23.425 24.055 56.125 38.977 92.311 38.977 0.808 0 1.614-0.007 2.418-0.022l-0.121 0.002c28.939 0 54.762-8.326 77.379-25.021s38.734-38.066 48.395-64.022h149.148l-81.252 81.252 62.33 63.443 189.217-189.217-189.217-189.217-62.33 63.443 81.252 81.252h-149.148c-13.291-38.327-42.925-67.961-80.34-80.976l-0.912-0.276v-371.757c38.331-13.285 67.967-42.922 80.976-80.34l0.276-0.912h149.148l-81.252 81.252 62.33 63.443 189.217-189.217-189.217-189.217zM756.87 13.913c-0.684-0.013-1.49-0.020-2.297-0.020-36.186 0-68.886 14.922-92.284 38.949l-0.027 0.028c-24.055 23.425-38.977 56.125-38.977 92.311 0 0.808 0.007 1.614 0.022 2.418l-0.002-0.121c0 29.696 8.326 55.83 25.021 78.447 15.807 21.739 37.67 38.212 63.105 47.049l0.918 0.277v371.757c-26.353 9.115-48.215 25.588-63.762 46.952l-0.26 0.375c-15.642 21.057-25.040 47.564-25.040 76.267 0 0.767 0.007 1.532 0.020 2.295l-0.002-0.115c0 37.087 13 68.653 38.957 94.609 23.425 24.055 56.125 38.977 92.311 38.977 0.808 0 1.614-0.007 2.418-0.022l-0.121 0.002c37.087 0 68.653-13 94.609-38.957s38.957-57.522 38.957-94.609c0.012-0.649 0.018-1.414 0.018-2.181 0-28.702-9.398-55.21-25.285-76.612l0.245 0.346c-15.807-21.739-37.67-38.212-63.105-47.049l-0.918-0.277v-371.757c26.263-9.814 48.037-26.553 63.752-48.008l0.27-0.387c16.696-22.662 25.021-48.44 25.021-77.379 0-37.087-13-68.653-38.957-94.609-23.425-24.055-56.125-38.977-92.311-38.977-0.808 0-1.614 0.007-2.418 0.022l0.121-0.002zM133.565 102.957c0.315-0.008 0.687-0.013 1.059-0.013 12.006 0 22.866 4.91 30.68 12.83l0.005 0.005c7.899 7.809 12.791 18.645 12.791 30.623 0 0.379-0.005 0.756-0.015 1.132l0.001-0.056c0.009 0.321 0.013 0.698 0.013 1.076 0 11.979-4.892 22.815-12.787 30.619l-0.004 0.004c-7.82 7.926-18.679 12.835-30.685 12.835-0.372 0-0.744-0.005-1.114-0.014l0.055 0.001c-0.315 0.008-0.687 0.013-1.059 0.013-12.006 0-22.866-4.91-30.68-12.83l-0.005-0.005c-7.899-7.809-12.791-18.645-12.791-30.623 0-0.379 0.005-0.756 0.015-1.132l-0.001 0.056c0-12.6 4.274-23.151 12.778-31.699 8.548-8.548 19.144-12.822 31.744-12.822zM756.87 102.957c12.6 0 23.151 4.274 31.699 12.822 7.925 7.799 12.836 18.641 12.836 30.63 0 0.376-0.005 0.751-0.014 1.125l0.001-0.055c0.008 0.319 0.013 0.694 0.013 1.070 0 11.989-4.91 22.831-12.83 30.624l-0.006 0.006c-7.799 7.925-18.641 12.836-30.63 12.836-0.376 0-0.751-0.005-1.125-0.014l0.055 0.001c-0.319 0.008-0.694 0.013-1.070 0.013-11.989 0-22.831-4.91-30.624-12.83l-0.006-0.006c-7.925-7.799-12.836-18.641-12.836-30.63 0-0.376 0.005-0.751 0.014-1.125l-0.001 0.055c0-12.6 4.274-23.151 12.822-31.699 7.799-7.925 18.641-12.836 30.63-12.836 0.376 0 0.751 0.005 1.125 0.014l-0.055-0.001zM133.565 726.261c0.317-0.008 0.691-0.013 1.066-0.013 11.996 0 22.849 4.891 30.675 12.788l0.003 0.003c7.9 7.829 12.791 18.683 12.791 30.678 0 0.375-0.005 0.748-0.014 1.121l0.001-0.055c0.008 0.317 0.013 0.691 0.013 1.066 0 11.996-4.891 22.849-12.788 30.675l-0.003 0.003c-7.829 7.9-18.683 12.791-30.678 12.791-0.375 0-0.748-0.005-1.121-0.014l0.055 0.001c-0.317 0.008-0.691 0.013-1.066 0.013-11.996 0-22.849-4.891-30.675-12.788l-0.003-0.003c-7.9-7.829-12.791-18.683-12.791-30.678 0-0.375 0.005-0.748 0.014-1.121l-0.001 0.055c-0.008-0.317-0.013-0.691-0.013-1.066 0-11.996 4.891-22.849 12.788-30.675l0.003-0.003c7.829-7.9 18.683-12.791 30.678-12.791 0.375 0 0.748 0.005 1.121 0.014l-0.055-0.001zM756.87 726.261c12.6 0 23.151 4.274 31.699 12.778 7.926 7.82 12.835 18.679 12.835 30.685 0 0.372-0.005 0.744-0.014 1.114l0.001-0.055c0.008 0.315 0.013 0.687 0.013 1.059 0 12.006-4.91 22.866-12.83 30.68l-0.005 0.005c-7.809 7.899-18.645 12.791-30.623 12.791-0.379 0-0.756-0.005-1.132-0.015l0.056 0.001c-0.321 0.009-0.698 0.013-1.076 0.013-11.979 0-22.815-4.892-30.619-12.787l-0.004-0.004c-7.926-7.82-12.835-18.679-12.835-30.685 0-0.372 0.005-0.744 0.014-1.114l-0.001 0.055c0-12.6 4.274-23.196 12.822-31.744 7.809-7.899 18.645-12.791 30.623-12.791 0.379 0 0.756 0.005 1.132 0.015l-0.056-0.001zM133.565 102.957c-0.315-0.008-0.687-0.013-1.059-0.013-12.006 0-22.866 4.91-30.68 12.83l-0.005 0.005c-7.899 7.809-12.791 18.645-12.791 30.623 0 0.379 0.005 0.756 0.015 1.132l-0.001-0.056c0 12.6 4.274 23.151 12.778 31.699 7.82 7.926 18.679 12.835 30.685 12.835 0.372 0 0.744-0.005 1.114-0.014l-0.055 0.001c12.6 0 23.196-4.274 31.744-12.822 7.899-7.809 12.791-18.645 12.791-30.623 0-0.379-0.005-0.756-0.015-1.132l0.001 0.056c0-12.6-4.274-23.151-12.778-31.699-7.82-7.926-18.679-12.835-30.685-12.835-0.372 0-0.744 0.005-1.114 0.014l0.055-0.001zM756.87 102.957c-0.319-0.008-0.694-0.013-1.070-0.013-11.989 0-22.831 4.91-30.624 12.83l-0.006 0.006c-7.925 7.799-12.836 18.641-12.836 30.63 0 0.376 0.005 0.751 0.014 1.125l-0.001-0.055c0 12.6 4.274 23.151 12.822 31.699 7.799 7.925 18.641 12.836 30.63 12.836 0.376 0 0.751-0.005 1.125-0.014l-0.055 0.001c12.6 0 23.151-4.274 31.699-12.822 7.925-7.799 12.836-18.641 12.836-30.63 0-0.376-0.005-0.751-0.014-1.125l0.001 0.055c0-12.6-4.274-23.151-12.822-31.699-7.799-7.925-18.641-12.836-30.63-12.836-0.376 0-0.751 0.005-1.125 0.014l0.055-0.001zM133.565 726.261c-0.317-0.008-0.691-0.013-1.066-0.013-11.996 0-22.849 4.891-30.675 12.788l-0.003 0.003c-7.9 7.829-12.791 18.683-12.791 30.678 0 0.375 0.005 0.748 0.014 1.121l-0.001-0.055c-0.008 0.317-0.013 0.691-0.013 1.066 0 11.996 4.891 22.849 12.788 30.675l0.003 0.003c7.829 7.9 18.683 12.791 30.678 12.791 0.375 0 0.748-0.005 1.121-0.014l-0.055 0.001c0.317 0.008 0.691 0.013 1.066 0.013 11.996 0 22.849-4.891 30.675-12.788l0.003-0.003c7.9-7.829 12.791-18.683 12.791-30.678 0-0.375-0.005-0.748-0.014-1.121l0.001 0.055c0.008-0.317 0.013-0.691 0.013-1.066 0-11.996-4.891-22.849-12.788-30.675l-0.003-0.003c-7.829-7.9-18.683-12.791-30.678-12.791-0.375 0-0.748 0.005-1.121 0.014l0.055-0.001zM756.87 726.261c-0.321-0.009-0.698-0.013-1.076-0.013-11.979 0-22.815 4.892-30.619 12.787l-0.004 0.004c-7.926 7.82-12.835 18.679-12.835 30.685 0 0.372 0.005 0.744 0.014 1.114l-0.001-0.055c0 12.6 4.274 23.196 12.822 31.744 7.809 7.899 18.645 12.791 30.623 12.791 0.379 0 0.756-0.005 1.132-0.015l-0.056 0.001c12.6 0 23.151-4.274 31.699-12.778 8.548-8.548 12.822-19.144 12.822-31.744 0.008-0.315 0.013-0.687 0.013-1.059 0-12.006-4.91-22.866-12.83-30.68l-0.005-0.005c-7.809-7.899-18.645-12.791-30.623-12.791-0.379 0-0.756 0.005-1.132 0.015l0.056-0.001z" />
<glyph unicode="&#xe949;" glyph-name="folder-grey" horiz-adv-x="1280" d="M0 960h512l128-128h640v-896h-1280v1024z" />
<glyph unicode="&#xe94a;" glyph-name="history" d="M688.192 205.568l-224.384 224.352v319.264h90.368v-283.104l197.248-197.28-63.232-63.232zM507.488-64c-130.528 0-244.224 42.88-341.12 128.736-96.864 85.856-152.288 193.504-166.368 323.040h91.84c15.072-104.416 61.76-190.752 140.064-259.040 78.304-68.256 170.176-102.4 275.584-102.4 117.44 0 217.088 40.96 298.944 122.784 81.792 81.792 122.688 181.44 122.688 298.88s-40.896 217.12-122.688 298.944c-81.856 81.792-181.504 122.688-298.944 122.688-65.28 0-126.72-14.528-184.448-43.648-58.903-30.059-108.336-70.595-147.64-119.603l-0.68-0.877h156.608v-90.368h-305.728v305.728h90.368v-143.040c47.597 56.549 106.354 102.075 173.062 133.504l3.098 1.312c62.694 29.9 136.254 47.362 213.891 47.362 0.528 0 1.055-0.001 1.582-0.002h-0.082c71.264 0 138.048-13.568 200.288-40.64 62.24-27.136 116.448-63.776 162.624-109.952 45.199-45.309 81.995-99.025 107.836-158.596l1.284-3.324c26.656-61.696 39.968-128.224 39.968-199.488s-13.312-137.792-39.936-199.488c-27.133-62.896-63.94-116.612-109.161-161.929l0.009 0.009c-46.176-46.176-100.384-82.816-162.624-109.92-62.24-27.136-129.024-40.672-200.32-40.672z" />
<glyph unicode="&#xe94b;" glyph-name="icon-cart-white" d="M307.2 140.8c-56.32 0-101.888-46.080-101.888-102.4s45.568-102.4 101.888-102.4 102.4 46.080 102.4 102.4-46.080 102.4-102.4 102.4zM0 960v-102.4h102.4l184.32-388.608-69.12-125.44c-8.192-14.336-12.8-31.232-12.8-49.152 0-56.32 46.080-102.4 102.4-102.4h614.4v102.4h-592.896c-7.168 0-12.8 5.632-12.8 12.8l1.536 6.144 46.080 83.456h381.44c38.4 0 72.192 20.992 89.6 52.736l183.296 332.288c3.89 7.060 6.179 15.474 6.179 24.423 0 28.32-22.924 51.286-51.229 51.353h-757.254l-48.128 102.4h-167.424zM819.2 140.8c-56.32 0-101.888-46.080-101.888-102.4s45.568-102.4 101.888-102.4 102.4 46.080 102.4 102.4-46.080 102.4-102.4 102.4z" />
<glyph unicode="&#xe94c;" glyph-name="icon-cart" d="M307.2 140.8c-56.32 0-101.888-46.080-101.888-102.4s45.568-102.4 101.888-102.4 102.4 46.080 102.4 102.4-46.080 102.4-102.4 102.4zM0 960v-102.4h102.4l184.32-388.608-69.12-125.44c-8.192-14.336-12.8-31.232-12.8-49.152 0-56.32 46.080-102.4 102.4-102.4h614.4v102.4h-592.896c-7.168 0-12.8 5.632-12.8 12.8l1.536 6.144 46.080 83.456h381.44c38.4 0 72.192 20.992 89.6 52.736l183.296 332.288c3.89 7.060 6.179 15.474 6.179 24.423 0 28.32-22.924 51.286-51.229 51.353h-757.254l-48.128 102.4h-167.424zM819.2 140.8c-56.32 0-101.888-46.080-101.888-102.4s45.568-102.4 101.888-102.4 102.4 46.080 102.4 102.4-46.080 102.4-102.4 102.4z" />
<glyph unicode="&#xe94d;" glyph-name="info-white" d="M469.285 219.697h97.524v292.571h-97.524v-292.571zM518.046 609.792c0.331-0.008 0.721-0.013 1.112-0.013 13.149 0 25.042 5.377 33.601 14.051l0.005 0.005c8.652 8.552 14.009 20.42 14.009 33.54 0 0.415-0.005 0.828-0.016 1.24l0.001-0.061c0.009 0.347 0.014 0.757 0.014 1.167 0 13.138-5.357 25.026-14.006 33.597l-0.004 0.004c-8.575 8.652-20.462 14.009-33.6 14.009-0.41 0-0.819-0.005-1.227-0.016l0.060 0.001c-0.337 0.009-0.734 0.014-1.131 0.014-13.119 0-24.986-5.357-33.534-14.004l-0.004-0.004c-8.681-8.564-14.058-20.458-14.058-33.608 0-0.408 0.005-0.814 0.015-1.22l-0.001 0.060c0-13.8 4.681-25.356 14.043-34.718 8.542-8.679 20.416-14.057 33.546-14.057 0.395 0 0.789 0.005 1.182 0.015l-0.058-0.001zM518.046-24.113c-0.914-0.006-1.994-0.010-3.076-0.010-67.617 0-131.931 14.14-190.147 39.625l3.052-1.191c-60.124 25.915-111.482 61.052-154.836 104.221l0.017-0.017c-43.886 43.886-78.653 95.476-104.204 154.819-24.294 55.16-38.434 119.472-38.434 187.085 0 1.085 0.004 2.169 0.011 3.253l-0.001-0.167c0 67.438 12.776 130.828 38.424 190.171 25.915 60.124 61.052 111.482 104.221 154.836l-0.017-0.017c43.886 43.886 95.476 78.653 154.819 104.253 55.164 24.264 119.474 38.386 187.082 38.386 1.086 0 2.172-0.004 3.256-0.011l-0.167 0.001c67.438 0 130.828-12.776 190.171-38.376 60.122-25.945 111.477-61.096 154.837-104.27l-0.018 0.017c43.886-43.886 78.604-95.476 104.155-154.819 24.294-55.158 38.434-119.465 38.434-187.076 0-1.088-0.004-2.176-0.011-3.263l0.001 0.167c0.006-0.92 0.010-2.007 0.010-3.096 0-67.61-14.14-131.918-39.625-190.127l1.191 3.051c-25.913-60.125-61.050-111.483-104.221-154.836l0.016 0.017c-43.886-43.886-95.476-78.604-154.819-104.204-55.16-24.294-119.472-38.434-187.085-38.434-1.085 0-2.169 0.004-3.253 0.011l0.167-0.001z" />
<glyph unicode="&#xe94e;" glyph-name="info" d="M469.285 219.697h97.524v292.571h-97.524v-292.571zM518.046 609.792c0.331-0.008 0.721-0.013 1.112-0.013 13.149 0 25.042 5.377 33.601 14.051l0.005 0.005c8.652 8.552 14.009 20.42 14.009 33.54 0 0.415-0.005 0.828-0.016 1.24l0.001-0.061c0.009 0.347 0.014 0.757 0.014 1.167 0 13.138-5.357 25.026-14.006 33.597l-0.004 0.004c-8.575 8.652-20.462 14.009-33.6 14.009-0.41 0-0.819-0.005-1.227-0.016l0.060 0.001c-0.337 0.009-0.734 0.014-1.131 0.014-13.119 0-24.986-5.357-33.534-14.004l-0.004-0.004c-8.681-8.564-14.058-20.458-14.058-33.608 0-0.408 0.005-0.814 0.015-1.22l-0.001 0.060c0-13.8 4.681-25.356 14.043-34.718 8.542-8.679 20.416-14.057 33.546-14.057 0.395 0 0.789 0.005 1.182 0.015l-0.058-0.001zM518.046-24.113c-0.914-0.006-1.994-0.010-3.076-0.010-67.617 0-131.931 14.14-190.147 39.625l3.052-1.191c-60.124 25.915-111.482 61.052-154.836 104.221l0.017-0.017c-43.886 43.886-78.653 95.476-104.204 154.819-24.294 55.16-38.434 119.472-38.434 187.085 0 1.085 0.004 2.169 0.011 3.253l-0.001-0.167c0 67.438 12.776 130.828 38.424 190.171 25.915 60.124 61.052 111.482 104.221 154.836l-0.017-0.017c43.886 43.886 95.476 78.653 154.819 104.253 55.164 24.264 119.474 38.386 187.082 38.386 1.086 0 2.172-0.004 3.256-0.011l-0.167 0.001c67.438 0 130.828-12.776 190.171-38.376 60.122-25.945 111.477-61.096 154.837-104.27l-0.018 0.017c43.886-43.886 78.604-95.476 104.155-154.819 24.294-55.158 38.434-119.465 38.434-187.076 0-1.088-0.004-2.176-0.011-3.263l0.001 0.167c0.006-0.92 0.010-2.007 0.010-3.096 0-67.61-14.14-131.918-39.625-190.127l1.191 3.051c-25.913-60.125-61.050-111.483-104.221-154.836l0.016 0.017c-43.886-43.886-95.476-78.604-154.819-104.204-55.16-24.294-119.472-38.434-187.085-38.434-1.085 0-2.169 0.004-3.253 0.011l0.167-0.001z" />
<glyph unicode="&#xe94f;" glyph-name="instagram-blue" d="M512 867.47c135.713 0 154.218 0 209.736 0 49.349 0 74.023-12.337 92.529-18.506 24.674-12.338 43.18-18.506 61.686-37.012 18.51-18.506 30.847-37.012 37.016-61.687 6.169-18.506 12.337-43.181 18.506-92.53 0-55.518 0-67.856 0-209.735 0-141.881 0-154.218 0-209.736 0-49.349-12.337-74.023-18.506-92.529-12.337-24.674-18.506-43.18-37.016-61.686-18.506-18.51-37.011-30.847-61.686-37.016-18.506-6.169-43.18-12.337-92.529-18.506-55.517 0-67.854 0-209.736 0-141.879 0-154.217 0-209.735 0-49.349 0-74.024 12.337-92.53 18.506-24.675 12.337-43.18 18.506-61.687 37.016-18.506 18.506-30.843 37.011-37.012 61.686-6.169 18.506-12.337 43.18-18.506 92.529 0 55.517 0 67.854 0 209.736 0 141.879 0 154.217 0 209.735 0 49.349 12.337 74.024 18.506 92.53 12.338 24.675 18.506 43.18 37.012 61.687s37.012 30.843 61.687 37.012c18.506 6.169 43.181 12.337 92.53 18.506 55.518 0 74.024 0 209.735 0zM512 960c-141.879 0-154.217 0-209.735 0s-92.53-12.337-123.374-24.675c-30.843-12.337-61.687-30.843-92.53-61.687s-43.18-55.518-61.687-92.53c-12.337-30.843-18.506-67.856-24.675-123.374 0-55.518 0-74.024 0-209.735 0-141.881 0-154.218 0-209.736s12.337-92.529 24.675-123.372c12.337-30.843 30.843-61.69 61.687-92.533s55.518-43.18 92.53-61.686c30.843-12.337 67.856-18.506 123.374-24.674 55.518 0 74.024 0 209.735 0 135.713 0 154.218 0 209.736 0s92.529 12.337 123.372 24.674c30.843 12.337 61.69 30.843 92.533 61.686s43.18 55.521 61.686 92.533c12.337 30.843 18.506 67.854 24.674 123.372 0 55.517 0 74.023 0 209.736 0 135.711 0 154.217 0 209.735s-12.337 92.53-24.674 123.374c-12.337 30.843-30.843 61.687-61.686 92.53s-55.521 43.18-92.533 61.687c-30.843 12.337-67.854 18.506-123.372 24.675-55.517 0-67.854 0-209.736 0zM512 713.253c-148.048 0-265.253-117.205-265.253-265.253 0-148.050 117.205-265.253 265.253-265.253 148.050 0 265.253 117.203 265.253 265.253 0 148.048-117.203 265.253-265.253 265.253zM512 275.276c-92.529 0-172.723 74.027-172.723 172.724 0 92.529 74.026 172.723 172.723 172.723 92.529 0 172.724-74.026 172.724-172.723 0-92.529-80.196-172.724-172.724-172.724zM783.421 657.735c34.071 0 61.686 27.618 61.686 61.687s-27.615 61.687-61.686 61.687c-34.066 0-61.686-27.618-61.686-61.687s27.619-61.687 61.686-61.687z" />
<glyph unicode="&#xe950;" glyph-name="instagram-white" horiz-adv-x="1065" d="M537.395 867.471h209.715c49.357 0 74.056-12.329 92.57-18.514 24.658-12.329 43.172-18.514 61.686-36.987 18.473-18.514 30.843-37.028 36.987-61.686 6.144-18.514 12.37-43.213 18.514-92.57v-419.43c0-49.357-12.329-74.056-18.514-92.57-12.288-24.658-18.473-43.172-36.987-61.686-18.514-18.473-37.028-30.843-61.686-36.987-18.514-6.144-43.213-12.329-92.57-18.514h-419.43c-49.357 0-74.056 12.329-92.57 18.514-24.658 12.329-43.172 18.514-61.645 37.028-18.514 18.473-30.843 36.987-37.028 61.686-6.144 18.473-12.329 43.172-18.514 92.529v419.43c0 49.357 12.329 74.056 18.514 92.57 12.329 24.658 18.514 43.172 37.028 61.686 18.473 18.473 36.987 30.843 61.686 36.987 18.473 6.144 43.172 12.329 92.529 18.514h209.715zM537.395 960h-209.715c-55.542 0-92.57-12.329-123.372-24.658-36.157-14.662-66.971-35.565-92.526-61.641l-0.044-0.045c-30.802-30.843-43.172-55.542-61.645-92.57-12.411-30.802-18.555-67.789-24.699-123.372v-419.43c0-55.542 12.329-92.57 24.699-123.372 14.662-36.157 35.565-66.971 61.641-92.526l0.045-0.044c30.843-30.843 55.501-43.172 92.529-61.686 30.843-12.288 67.83-18.473 123.372-24.658h419.43c55.542 0 92.57 12.329 123.412 24.658 36.141 14.666 66.941 35.568 92.484 61.64l0.045 0.046c30.843 30.843 43.172 55.542 61.686 92.57 12.288 30.843 18.473 67.83 24.658 123.372v419.43c0 55.542-12.329 92.57-24.658 123.412-14.667 36.141-35.569 66.941-61.64 92.484l-0.045 0.044c-30.843 30.843-55.542 43.172-92.57 61.686-30.802 12.288-67.789 18.473-123.29 24.658h-209.715zM537.395 713.257c-0.586 0.005-1.28 0.007-1.973 0.007-145.412 0-263.291-117.879-263.291-263.291 0-0.694 0.003-1.387 0.008-2.079l-0.001 0.106c-0.005-0.586-0.007-1.28-0.007-1.973 0-145.412 117.879-263.291 263.291-263.291 0.694 0 1.387 0.003 2.079 0.008l-0.106-0.001c0.586-0.005 1.28-0.007 1.973-0.007 145.412 0 263.291 117.879 263.291 263.291 0 0.694-0.003 1.387-0.008 2.079l0.001-0.106c0.005 0.586 0.007 1.28 0.007 1.973 0 145.412-117.879 263.291-263.291 263.291-0.694 0-1.387-0.003-2.079-0.008l0.106 0.001zM537.395 275.272c-92.529 0-172.728 74.015-172.728 172.728 0 92.529 74.015 172.728 172.728 172.728 92.57 0 172.728-74.015 172.728-172.728 0-92.529-80.2-172.728-172.728-172.728zM808.837 657.715c34.068 0 61.686 27.618 61.686 61.686s-27.618 61.686-61.686 61.686v0c-34.068 0-61.686-27.618-61.686-61.686s27.618-61.686 61.686-61.686v0z" />
<glyph unicode="&#xe951;" glyph-name="instagram" d="M512 867.471h209.715c49.357 0 74.056-12.329 92.57-18.514 24.658-12.329 43.172-18.514 61.686-36.987 18.473-18.514 30.843-37.028 36.987-61.686 6.144-18.514 12.329-43.213 18.514-92.57v-419.43c0-49.357-12.329-74.056-18.514-92.57-12.329-24.658-18.514-43.172-37.028-61.686-18.473-18.473-36.987-30.843-61.686-36.987-18.473-6.144-43.172-12.329-92.529-18.514h-419.43c-49.357 0-74.056 12.329-92.57 18.514-24.658 12.329-43.172 18.514-61.686 37.028-18.473 18.473-30.843 36.987-36.987 61.686-6.144 18.473-12.329 43.172-18.514 92.529v419.43c0 49.357 12.329 74.056 18.514 92.57 12.329 24.658 18.514 43.172 36.987 61.686 18.514 18.473 37.028 30.843 61.686 36.987 18.514 6.144 43.213 12.329 92.57 18.514h209.715zM512 960h-209.715c-55.542 0-92.57-12.329-123.412-24.658-36.141-14.667-66.941-35.569-92.484-61.64l-0.044-0.045c-30.843-30.843-43.172-55.542-61.686-92.57-12.288-30.802-18.473-67.789-24.658-123.372v-419.43c0-55.542 12.329-92.57 24.658-123.372 14.662-36.157 35.565-66.971 61.641-92.526l0.045-0.044c30.843-30.843 55.542-43.172 92.57-61.686 30.802-12.288 67.83-18.473 123.372-24.658h419.43c55.542 0 92.57 12.329 123.372 24.658 36.157 14.662 66.971 35.565 92.526 61.641l0.044 0.045c30.843 30.843 43.172 55.542 61.686 92.57 12.288 30.843 18.473 67.83 24.658 123.372v419.43c0 55.542-12.329 92.57-24.658 123.412-14.667 36.141-35.569 66.941-61.64 92.484l-0.045 0.044c-30.843 30.843-55.542 43.172-92.57 61.686-30.802 12.288-67.789 18.473-123.372 24.658h-209.715zM512 713.257c-0.586 0.005-1.28 0.007-1.973 0.007-145.412 0-263.291-117.879-263.291-263.291 0-0.694 0.003-1.387 0.008-2.079l-0.001 0.106c-0.005-0.586-0.007-1.28-0.007-1.973 0-145.412 117.879-263.291 263.291-263.291 0.694 0 1.387 0.003 2.079 0.008l-0.106-0.001c0.586-0.005 1.28-0.007 1.973-0.007 145.412 0 263.291 117.879 263.291 263.291 0 0.694-0.003 1.387-0.008 2.079l0.001-0.106c0.005 0.586 0.007 1.28 0.007 1.973 0 145.412-117.879 263.291-263.291 263.291-0.694 0-1.387-0.003-2.079-0.008l0.106 0.001zM512 275.272c-92.529 0-172.728 74.015-172.728 172.728 0 92.529 74.015 172.728 172.728 172.728 92.529 0 172.728-74.015 172.728-172.728 0-92.529-80.2-172.728-172.728-172.728zM783.442 657.715c34.068 0 61.686 27.618 61.686 61.686s-27.618 61.686-61.686 61.686v0c-34.068 0-61.686-27.618-61.686-61.686s27.618-61.686 61.686-61.686v0z" />
<glyph unicode="&#xe952;" glyph-name="left-right-arrow-blue" horiz-adv-x="1331" d="M14.541 448l289.587 289.638 72.397-72.397-166.502-166.554h912.384l-166.554 166.554 72.397 72.397 289.638-289.638-289.638-289.638-72.397 72.448 166.502 166.502h-912.333l166.554-166.502-72.397-72.448-289.638 289.638z" />
<glyph unicode="&#xe953;" glyph-name="linkedin-white" d="M230.4-64h-217.62v684.81h217.62v-684.81zM121.61 716.82c-70.41-0.041-121.61 51.159-121.61 121.528 0 70.451 57.59 121.651 121.61 121.651 70.41 0 121.61-51.2 121.61-121.61s-51.2-121.61-121.651-121.61zM1024-64h-217.62v371.22c0 108.79-44.769 140.78-108.79 140.78-63.98 0-128-51.2-128-147.21v-364.79h-217.58v684.81h204.8v-96.010c19.21 44.81 96.010 115.22 204.8 115.22 121.569 0 249.569-70.451 249.569-281.6v-422.42h12.82z" />
<glyph unicode="&#xe954;" glyph-name="linkedin" d="M230.4-64h-217.62v684.81h217.62v-684.81zM121.61 716.82c-70.41-0.041-121.61 51.159-121.61 121.528 0 70.451 57.59 121.651 121.61 121.651 70.41 0 121.61-51.2 121.61-121.61s-51.2-121.61-121.651-121.61zM1024-64h-217.62v371.22c0 108.79-44.769 140.78-108.79 140.78-63.98 0-128-51.2-128-147.21v-364.79h-217.58v684.81h204.8v-96.010c19.21 44.81 96.010 115.22 204.8 115.22 121.569 0 249.569-70.451 249.569-281.6v-422.42h12.82z" />
<glyph unicode="&#xe955;" glyph-name="load-more" horiz-adv-x="757" d="M93.496 267.687c-14.871 24.957-27.399 53.784-36.097 84.227l-0.633 2.591c-7.774 27.216-12.244 58.475-12.244 90.777 0 0.173 0 0.346 0 0.519v-0.027c0 99.417 34.504 184.008 103.513 253.774s153.244 104.626 252.661 104.626h7.791l-71.235 71.235 62.33 62.33 178.087-178.087-178.087-178.087-62.33 62.33 71.235 71.235h-7.791c-74.218 0-137.261-26.134-189.217-78.447s-77.913-115.979-77.913-190.909c0-19.278 2.226-38.2 6.678-56.765s11.13-36.73 20.035-54.539l-66.783-66.783zM401.809-41.739l-178.087 178.087 178.087 178.087 62.33-62.33-71.235-71.235h7.791c74.218 0 137.261 26.134 189.217 78.447s77.913 115.979 77.913 190.909c0 19.278-2.226 38.2-6.678 56.765s-11.13 36.73-20.035 54.539l66.783 66.783c16.339-28.182 28.583-57.121 36.73-86.817s12.243-60.104 12.243-91.27c0-99.417-34.504-184.008-103.513-253.774s-153.244-104.626-252.661-104.626h-7.791l71.235-71.235-62.33-62.33z" />
<glyph unicode="&#xe956;" glyph-name="location-grey" d="M512 448c28.16 0 52.275 10.035 72.346 30.106 20.019 20.019 30.054 44.134 30.054 72.294s-10.035 52.275-30.054 72.346c-17.969 18.55-43.107 30.064-70.934 30.064-0.496 0-0.992-0.004-1.486-0.011l0.075 0.001c-28.16 0-52.224-10.035-72.294-30.054-18.58-17.965-30.115-43.116-30.115-70.962 0-0.487 0.004-0.972 0.011-1.457l-0.001 0.073c0-28.16 10.035-52.224 30.106-72.294 20.019-20.070 44.134-30.106 72.294-30.106zM512-64c-137.37 116.89-239.974 225.485-307.814 325.786-67.84 100.25-101.786 193.024-101.786 278.374 0 128 41.165 229.99 123.546 305.92 82.33 75.93 177.664 113.92 286.054 113.92s203.725-37.99 286.054-113.92c82.381-75.93 123.546-177.92 123.546-305.92 0-85.35-33.894-178.125-101.734-278.374-67.84-100.301-170.496-208.896-307.866-325.786z" />
<glyph unicode="&#xe957;" glyph-name="log-white" d="M921.6 755.2v-716.8h-716.8v-102.4h716.8c56.32 0 102.4 46.080 102.4 102.4v716.8h-102.4zM716.8 960h-614.4c-56.32 0-102.4-46.080-102.4-102.4v-614.4c0-56.32 46.080-102.4 102.4-102.4h614.4c56.32 0 102.4 46.080 102.4 102.4v614.4c0 56.32-46.080 102.4-102.4 102.4zM358.4 243.2h-256v256h256v-256zM716.8 243.2h-256v256h256v-256zM716.8 601.6h-614.4v256h614.4v-256z" />
<glyph unicode="&#xe958;" glyph-name="log" d="M921.6 755.2v-716.8h-716.8v-102.4h716.8c56.32 0 102.4 46.080 102.4 102.4v716.8h-102.4zM716.8 960h-614.4c-56.32 0-102.4-46.080-102.4-102.4v-614.4c0-56.32 46.080-102.4 102.4-102.4h614.4c56.32 0 102.4 46.080 102.4 102.4v614.4c0 56.32-46.080 102.4-102.4 102.4zM358.4 243.2h-256v256h256v-256zM716.8 243.2h-256v256h256v-256zM716.8 601.6h-614.4v256h614.4v-256z" />
<glyph unicode="&#xe959;" glyph-name="mail-blue" horiz-adv-x="1280" d="M107.213-45.722c-28.774 0-53.862 10.291-75.162 30.874-21.402 20.48-32.051 44.698-32.051 72.499v780.698c0 27.75 10.65 51.917 32 72.499 18.979 19.044 45.233 30.827 74.239 30.827 0.36 0 0.72-0.002 1.079-0.005h1065.571c28.774 0 53.862-10.24 75.162-30.822 21.35-20.582 32-44.749 32-72.499v-780.698c0-27.802-10.65-51.968-32-72.499-18.984-19.074-45.258-30.877-74.289-30.877-0.307 0-0.613 0.001-0.919 0.004h-1065.63zM640 409.446l532.838 331.674v97.229l-532.838-327.117-532.787 327.117v-97.229l532.787-331.725z" />
<glyph unicode="&#xe95a;" glyph-name="mail-white" horiz-adv-x="1347" d="M112.856-62.060c-0.334-0.004-0.729-0.006-1.124-0.006-30.377 0-57.915 12.159-78.011 31.875l0.018-0.017c-22.528 21.235-33.738 46.242-33.738 74.914v806.589c0 28.672 11.21 53.625 33.684 74.914 20.073 19.667 47.589 31.805 77.94 31.805 0.433 0 0.866-0.002 1.297-0.007l-0.066 0.001h1121.711c30.289 0 56.697-10.563 79.117-31.798 22.474-21.288 33.684-46.242 33.684-74.914v-806.589c0-28.672-11.21-53.679-33.684-74.914-20.079-19.699-47.616-31.857-77.993-31.857-0.395 0-0.79 0.002-1.184 0.006h-1121.651zM673.684 408.118l560.883 342.771v100.352l-560.883-337.866-560.829 337.866v-100.46l560.829-342.663z" />
<glyph unicode="&#xe95b;" glyph-name="measure-white" d="M0-39.747v999.747l220.968-220.968-72.758-72.758 37.726-37.726 72.758 72.758 140.126-140.126-72.758-72.758 37.726-37.726 72.758 72.758 140.126-140.126-72.758-72.758 37.726-37.726 72.758 72.758 140.126-140.126-72.758-72.758 37.726-37.726 72.758 72.758 207.495-207.495h-999.747zM161.684 121.937h447.326l-447.326 447.326v-447.326z" />
<glyph unicode="&#xe95c;" glyph-name="measure" d="M0-39.747v999.747l220.968-220.968-72.758-72.758 37.726-37.726 72.758 72.758 140.126-140.126-72.758-72.758 37.726-37.726 72.758 72.758 140.126-140.126-72.758-72.758 37.726-37.726 72.758 72.758 140.126-140.126-72.758-72.758 37.726-37.726 72.758 72.758 207.495-207.495h-999.747zM161.684 121.937h447.326l-447.326 447.326v-447.326z" />
<glyph unicode="&#xe95d;" glyph-name="mechanical-white" horiz-adv-x="973" d="M843.674 420.352c2.048 15.36 3.072 31.232 3.072 48.128 0 16.384-1.024 32.768-3.584 48.128l103.936 80.896c5.594 4.635 9.131 11.584 9.131 19.359 0 4.348-1.106 8.438-3.053 12.004l0.066-0.131-98.304 169.984c-4.368 7.654-12.478 12.731-21.774 12.731-3.025 0-5.924-0.538-8.608-1.522l0.173 0.056-122.368-49.152c-25.6 19.456-52.736 35.84-82.944 48.128l-18.432 130.048c-1.902 11.96-12.141 20.992-24.489 20.992-0.030 0-0.061 0-0.091 0h-196.603c-12.288 0-22.016-8.704-24.064-20.992l-18.432-130.048c-30.208-12.288-57.856-29.184-82.944-48.128l-122.368 49.152c-11.264 4.096-24.064 0-30.208-11.264l-97.792-169.984c-6.144-10.752-4.096-24.064 6.144-31.232l103.936-80.896c-2.56-15.36-4.608-32.256-4.608-48.128s1.024-32.768 3.584-48.128l-103.936-80.896c-5.594-4.635-9.131-11.584-9.131-19.359 0-4.348 1.106-8.438 3.053-12.004l-0.066 0.131 98.304-169.984c6.144-11.264 18.944-14.848 30.208-11.264l122.368 49.152c25.6-19.456 52.736-35.84 82.944-48.128l18.432-130.048c2.56-12.288 12.288-20.992 24.576-20.992h196.608c12.288 0 22.528 8.704 24.064 20.992l18.432 130.048c30.208 12.288 57.856 28.672 82.944 48.128l122.368-49.152c11.264-4.096 24.064 0 30.208 11.264l98.304 169.984c6.144 11.264 3.584 24.064-6.144 31.232l-102.912 80.896zM478.106 284.16c-101.68 0.29-184.030 82.64-184.32 184.292v0.028c0 101.376 82.944 184.32 184.32 184.32s184.32-82.944 184.32-184.32-82.944-184.32-184.32-184.32z" />
<glyph unicode="&#xe95e;" glyph-name="mechanical" horiz-adv-x="973" d="M843.674 420.352c2.048 15.36 3.072 31.232 3.072 48.128 0 16.384-1.024 32.768-3.584 48.128l103.936 80.896c5.594 4.635 9.131 11.584 9.131 19.359 0 4.348-1.106 8.438-3.053 12.004l0.066-0.131-98.304 169.984c-4.368 7.654-12.478 12.731-21.774 12.731-3.025 0-5.924-0.538-8.608-1.522l0.173 0.056-122.368-49.152c-25.6 19.456-52.736 35.84-82.944 48.128l-18.432 130.048c-1.902 11.96-12.141 20.992-24.489 20.992-0.030 0-0.061 0-0.091 0h-196.603c-12.288 0-22.016-8.704-24.064-20.992l-18.432-130.048c-30.208-12.288-57.856-29.184-82.944-48.128l-122.368 49.152c-11.264 4.096-24.064 0-30.208-11.264l-97.792-169.984c-6.144-10.752-4.096-24.064 6.144-31.232l103.936-80.896c-2.56-15.36-4.608-32.256-4.608-48.128s1.024-32.768 3.584-48.128l-103.936-80.896c-5.594-4.635-9.131-11.584-9.131-19.359 0-4.348 1.106-8.438 3.053-12.004l-0.066 0.131 98.304-169.984c6.144-11.264 18.944-14.848 30.208-11.264l122.368 49.152c25.6-19.456 52.736-35.84 82.944-48.128l18.432-130.048c2.56-12.288 12.288-20.992 24.576-20.992h196.608c12.288 0 22.528 8.704 24.064 20.992l18.432 130.048c30.208 12.288 57.856 28.672 82.944 48.128l122.368-49.152c11.264-4.096 24.064 0 30.208 11.264l98.304 169.984c6.144 11.264 3.584 24.064-6.144 31.232l-102.912 80.896zM478.106 284.16c-101.68 0.29-184.030 82.64-184.32 184.292v0.028c0 101.376 82.944 184.32 184.32 184.32s184.32-82.944 184.32-184.32-82.944-184.32-184.32-184.32z" />
<glyph unicode="&#xe95f;" glyph-name="menu-hamburger-white" horiz-adv-x="1536" d="M0-45.722v137.882h1536v-137.83h-1536zM0 380.109v135.782h1536v-135.782h-1536zM0 803.891v137.83h1536v-137.882h-1536z" />
<glyph unicode="&#xe960;" glyph-name="menu-white" horiz-adv-x="1365" d="M12.459-28.444v167.14h1340.359v-167.14h-1340.302zM12.459 364.43v167.196h1340.359v-167.14h-1340.302zM12.459 757.305v169.017h1340.359v-168.96h-1340.302z" />
<glyph unicode="&#xe961;" glyph-name="menu" horiz-adv-x="1365" d="M12.459-28.444v167.14h1340.359v-167.14h-1340.302zM12.459 364.43v167.196h1340.359v-167.14h-1340.302zM12.459 757.305v169.017h1340.359v-168.96h-1340.302z" />
<glyph unicode="&#xe962;" glyph-name="minus-blue" horiz-adv-x="7168" d="M0 960h7168v-1024h-7168zM0-64v1024h7168v-1024h-7168z" />
<glyph unicode="&#xe963;" horiz-adv-x="7168" d="M0 960h7168v-1024.512h-7168z" />
<glyph unicode="&#xe964;" horiz-adv-x="7168" d="M0-64v1024h7168v-1024h-7168z" />
<glyph unicode="&#xe965;" glyph-name="minus" horiz-adv-x="7168" d="M0 960h7168v-1024h-7168zM0-64v1024h7168v-1024h-7168z" />
<glyph unicode="&#xe966;" glyph-name="oil-white" d="M0-64v113.778h113.778v341.333h-113.778v113.778h113.778v341.333h-113.778v113.778h1024v-113.778h-113.778v-341.333h113.778v-113.778h-113.778v-341.333h113.778v-113.778h-1024zM512 220.444c47.388 0 87.723 16.384 120.889 49.095s49.778 72.249 49.778 118.727c0 36.978-10.638 68.722-31.972 95.289s-67.584 81.067-138.695 163.556c-71.111-81.522-117.362-135.794-138.695-162.816s-31.972-59.051-31.972-96.028c0-46.478 16.612-86.016 49.778-118.727s73.5-49.095 120.889-49.095z" />
<glyph unicode="&#xe967;" glyph-name="oil" d="M0-64v113.778h113.778v341.333h-113.778v113.778h113.778v341.333h-113.778v113.778h1024v-113.778h-113.778v-341.333h113.778v-113.778h-113.778v-341.333h113.778v-113.778h-1024zM512 220.444c47.388 0 87.723 16.384 120.889 49.095s49.778 72.249 49.778 118.727c0 36.978-10.638 68.722-31.972 95.289s-67.584 81.067-138.695 163.556c-71.111-81.522-117.362-135.794-138.695-162.816s-31.972-59.051-31.972-96.028c0-46.478 16.612-86.016 49.778-118.727s73.5-49.095 120.889-49.095z" />
<glyph unicode="&#xe968;" glyph-name="options-white" d="M256 362.667c-23.467 0-43.52 8.363-60.245 25.088-15.483 14.944-25.097 35.881-25.097 59.063 0 0.416 0.003 0.831 0.009 1.245l-0.001-0.063c0 23.467 8.363 43.563 25.088 60.288 14.954 15.458 35.885 25.054 59.058 25.054 0.418 0 0.834-0.003 1.251-0.009l-0.063 0.001c23.467 0 43.52-8.363 60.245-25.045 16.725-16.725 25.088-36.821 25.088-60.288s-8.363-43.52-25.088-60.245c-14.944-15.483-35.881-25.097-59.063-25.097-0.416 0-0.831 0.003-1.245 0.009l0.063-0.001zM512 362.667c-23.467 0-43.52 8.363-60.245 25.088-15.483 14.944-25.097 35.881-25.097 59.063 0 0.416 0.003 0.831 0.009 1.245l-0.001-0.063c0 23.467 8.363 43.563 25.088 60.288 14.954 15.458 35.885 25.054 59.058 25.054 0.418 0 0.834-0.003 1.251-0.009l-0.063 0.001c23.467 0 43.563-8.363 60.288-25.045 16.683-16.725 25.045-36.821 25.045-60.288s-8.363-43.52-25.045-60.245c-14.971-15.483-35.93-25.096-59.135-25.096-0.405 0-0.81 0.003-1.214 0.009l0.061-0.001zM768 362.667c-23.467 0-43.563 8.363-60.288 25.088-15.458 14.954-25.054 35.885-25.054 59.058 0 0.418 0.003 0.834 0.009 1.251l-0.001-0.063c0 23.467 8.363 43.563 25.045 60.288 14.974 15.459 35.923 25.054 59.112 25.054 0.414 0 0.826-0.003 1.238-0.009l-0.062 0.001c23.467 0 43.563-8.363 60.288-25.045 16.683-16.725 25.045-36.821 25.045-60.288s-8.363-43.52-25.045-60.245c-14.971-15.483-35.93-25.096-59.135-25.096-0.405 0-0.81 0.003-1.214 0.009l0.061-0.001z" />
<glyph unicode="&#xe969;" glyph-name="options" d="M256 362.667c-23.467 0-43.52 8.363-60.245 25.088-15.483 14.944-25.097 35.881-25.097 59.063 0 0.416 0.003 0.831 0.009 1.245l-0.001-0.063c0 23.467 8.363 43.563 25.088 60.288 14.954 15.458 35.885 25.054 59.058 25.054 0.418 0 0.834-0.003 1.251-0.009l-0.063 0.001c23.467 0 43.52-8.363 60.245-25.045 16.725-16.725 25.088-36.821 25.088-60.288s-8.363-43.52-25.088-60.245c-14.944-15.483-35.881-25.097-59.063-25.097-0.416 0-0.831 0.003-1.245 0.009l0.063-0.001zM512 362.667c-23.467 0-43.52 8.363-60.245 25.088-15.483 14.944-25.097 35.881-25.097 59.063 0 0.416 0.003 0.831 0.009 1.245l-0.001-0.063c0 23.467 8.363 43.563 25.088 60.288 14.954 15.458 35.885 25.054 59.058 25.054 0.418 0 0.834-0.003 1.251-0.009l-0.063 0.001c23.467 0 43.563-8.363 60.288-25.045 16.683-16.725 25.045-36.821 25.045-60.288s-8.363-43.52-25.045-60.245c-14.971-15.483-35.93-25.096-59.135-25.096-0.405 0-0.81 0.003-1.214 0.009l0.061-0.001zM768 362.667c-23.467 0-43.563 8.363-60.288 25.088-15.458 14.954-25.054 35.885-25.054 59.058 0 0.418 0.003 0.834 0.009 1.251l-0.001-0.063c0 23.467 8.363 43.563 25.045 60.288 14.974 15.459 35.923 25.054 59.112 25.054 0.414 0 0.826-0.003 1.238-0.009l-0.062 0.001c23.467 0 43.563-8.363 60.288-25.045 16.683-16.725 25.045-36.821 25.045-60.288s-8.363-43.52-25.045-60.245c-14.971-15.483-35.93-25.096-59.135-25.096-0.405 0-0.81 0.003-1.214 0.009l0.061-0.001z" />
<glyph unicode="&#xe96a;" glyph-name="pdf-download-blue" d="M388.291 405.87h48.762v97.524h48.762c0.345-0.009 0.752-0.014 1.16-0.014 13.15 0 25.043 5.377 33.602 14.052l0.005 0.005c8.652 8.552 14.009 20.42 14.009 33.54 0 0.415-0.005 0.828-0.016 1.24l0.001-0.061v48.762c0.008 0.333 0.013 0.726 0.013 1.119 0 13.138-5.356 25.025-14.004 33.596l-0.003 0.003c-8.579 8.681-20.485 14.057-33.647 14.057-0.394 0-0.786-0.005-1.178-0.014l0.058 0.001h-97.524v-243.81zM437.053 552.155v48.762h48.762v-48.762h-48.762zM583.339 405.87h97.524c0.345-0.009 0.752-0.014 1.16-0.014 13.15 0 25.043 5.377 33.602 14.052l0.005 0.005c8.652 8.552 14.009 20.42 14.009 33.54 0 0.415-0.005 0.828-0.016 1.24l0.001-0.061v146.286c0.008 0.333 0.013 0.726 0.013 1.119 0 13.138-5.356 25.025-14.004 33.596l-0.003 0.003c-8.579 8.681-20.485 14.057-33.647 14.057-0.394 0-0.786-0.005-1.178-0.014l0.058 0.001h-97.524v-243.81zM632.101 454.632v146.286h48.762v-146.286h-48.762zM778.386 405.87h48.762v97.524h48.762v48.762h-48.762v48.762h48.762v48.762h-97.524v-243.81zM242.005 137.679v780.19h780.19v-780.19h-780.19zM46.958-57.368v780.19h97.524v-682.667h682.667v-97.524h-780.19z" />
<glyph unicode="&#xe96b;" glyph-name="pdf-download-white" d="M388.291 405.87h48.762v97.524h48.762c0.345-0.009 0.752-0.014 1.16-0.014 13.15 0 25.043 5.377 33.602 14.052l0.005 0.005c8.652 8.552 14.009 20.42 14.009 33.54 0 0.415-0.005 0.828-0.016 1.24l0.001-0.061v48.762c0.008 0.333 0.013 0.726 0.013 1.119 0 13.138-5.356 25.025-14.004 33.596l-0.003 0.003c-8.579 8.681-20.485 14.057-33.647 14.057-0.394 0-0.786-0.005-1.178-0.014l0.058 0.001h-97.524v-243.81zM437.053 552.155v48.762h48.762v-48.762h-48.762zM583.339 405.87h97.524c0.345-0.009 0.752-0.014 1.16-0.014 13.15 0 25.043 5.377 33.602 14.052l0.005 0.005c8.652 8.552 14.009 20.42 14.009 33.54 0 0.415-0.005 0.828-0.016 1.24l0.001-0.061v146.286c0.008 0.333 0.013 0.726 0.013 1.119 0 13.138-5.356 25.025-14.004 33.596l-0.003 0.003c-8.579 8.681-20.485 14.057-33.647 14.057-0.394 0-0.786-0.005-1.178-0.014l0.058 0.001h-97.524v-243.81zM632.101 454.632v146.286h48.762v-146.286h-48.762zM778.386 405.87h48.762v97.524h48.762v48.762h-48.762v48.762h48.762v48.762h-97.524v-243.81zM242.005 137.679v780.19h780.19v-780.19h-780.19zM46.958-57.368v780.19h97.524v-682.667h682.667v-97.524h-780.19z" />
<glyph unicode="&#xe96c;" glyph-name="pdf-white" d="M388.291 405.87h48.762v97.524h48.762c0.345-0.009 0.752-0.014 1.16-0.014 13.15 0 25.043 5.377 33.602 14.052l0.005 0.005c8.652 8.552 14.009 20.42 14.009 33.54 0 0.415-0.005 0.828-0.016 1.24l0.001-0.061v48.762c0.008 0.333 0.013 0.726 0.013 1.119 0 13.138-5.356 25.025-14.004 33.596l-0.003 0.003c-8.579 8.681-20.485 14.057-33.647 14.057-0.394 0-0.786-0.005-1.178-0.014l0.058 0.001h-97.524v-243.81zM437.053 552.155v48.762h48.762v-48.762h-48.762zM583.339 405.87h97.524c0.345-0.009 0.752-0.014 1.16-0.014 13.15 0 25.043 5.377 33.602 14.052l0.005 0.005c8.652 8.552 14.009 20.42 14.009 33.54 0 0.415-0.005 0.828-0.016 1.24l0.001-0.061v146.286c0.008 0.333 0.013 0.726 0.013 1.119 0 13.138-5.356 25.025-14.004 33.596l-0.003 0.003c-8.579 8.681-20.485 14.057-33.647 14.057-0.394 0-0.786-0.005-1.178-0.014l0.058 0.001h-97.524v-243.81zM632.101 454.632v146.286h48.762v-146.286h-48.762zM778.386 405.87h48.762v97.524h48.762v48.762h-48.762v48.762h48.762v48.762h-97.524v-243.81zM242.005 137.679v780.19h780.19v-780.19h-780.19zM46.958-57.368v780.19h97.524v-682.667h682.667v-97.524h-780.19z" />
<glyph unicode="&#xe96d;" glyph-name="pdf" d="M388.291 405.87h48.762v97.524h48.762c0.345-0.009 0.752-0.014 1.16-0.014 13.15 0 25.043 5.377 33.602 14.052l0.005 0.005c8.652 8.552 14.009 20.42 14.009 33.54 0 0.415-0.005 0.828-0.016 1.24l0.001-0.061v48.762c0.008 0.333 0.013 0.726 0.013 1.119 0 13.138-5.356 25.025-14.004 33.596l-0.003 0.003c-8.579 8.681-20.485 14.057-33.647 14.057-0.394 0-0.786-0.005-1.178-0.014l0.058 0.001h-97.524v-243.81zM437.053 552.155v48.762h48.762v-48.762h-48.762zM583.339 405.87h97.524c0.345-0.009 0.752-0.014 1.16-0.014 13.15 0 25.043 5.377 33.602 14.052l0.005 0.005c8.652 8.552 14.009 20.42 14.009 33.54 0 0.415-0.005 0.828-0.016 1.24l0.001-0.061v146.286c0.008 0.333 0.013 0.726 0.013 1.119 0 13.138-5.356 25.025-14.004 33.596l-0.003 0.003c-8.579 8.681-20.485 14.057-33.647 14.057-0.394 0-0.786-0.005-1.178-0.014l0.058 0.001h-97.524v-243.81zM632.101 454.632v146.286h48.762v-146.286h-48.762zM778.386 405.87h48.762v97.524h48.762v48.762h-48.762v48.762h48.762v48.762h-97.524v-243.81zM242.005 137.679v780.19h780.19v-780.19h-780.19zM46.958-57.368v780.19h97.524v-682.667h682.667v-97.524h-780.19z" />
<glyph unicode="&#xe96e;" glyph-name="phone-blue" d="M964.288-64c-122.304 0-241.536 27.264-357.696 81.792-119.332 56.392-221.377 128.883-308.6 216.184l-0.008 0.008c-87.311 87.23-159.803 189.275-213.385 302.044l-2.807 6.564c-54.528 116.16-81.792 235.392-81.792 357.696 0 17.024 5.696 31.296 17.088 42.624 10.496 10.567 25.033 17.108 41.099 17.108 0.536 0 1.071-0.007 1.604-0.022l-0.079 0.002h230.4c13.312 0 25.152-4.288 35.584-12.8s16.64-19.456 18.496-32.704l36.992-199.104c1.92-13.312 1.664-25.344-0.704-36.224-2.653-11.545-8.422-21.475-16.368-29.169l-0.016-0.015-136.512-139.392c43.36-72.973 92.79-135.988 149.242-191.931l0.070-0.069c59.712-59.776 125.632-111.424 197.696-155.008l133.696 133.632c8.512 8.576 19.648 14.976 33.408 19.2 13.76 4.288 27.264 5.504 40.512 3.584l196.288-39.808c13.18-2.693 24.444-9.554 32.638-19.122l0.066-0.078c8.512-9.984 12.8-21.568 12.8-34.88v-230.4c0.013-0.462 0.021-1.006 0.021-1.551 0-16.057-6.542-30.587-17.105-41.069l-0.004-0.004c-10.486-10.567-25.015-17.109-41.073-17.109-0.545 0-1.089 0.008-1.631 0.023l0.080-0.002z" />
<glyph unicode="&#xe96f;" glyph-name="phone-white" d="M964.267-64c-122.311 0-241.55 27.307-357.66 81.806-119.337 56.385-221.387 128.872-308.615 216.17l-0.008 0.008c-87.306 87.236-159.793 189.285-213.371 302.058l-2.807 6.564c-54.556 116.11-81.806 235.349-81.806 357.66 0 17.067 5.689 31.289 17.067 42.667s25.6 17.067 42.667 17.067h230.4c0.125 0.001 0.273 0.002 0.422 0.002 13.419 0 25.707-4.84 35.215-12.868l-0.081 0.067c9.911-7.927 16.704-19.392 18.461-32.454l0.028-0.257 36.978-199.111c1.877-13.255 1.707-25.372-0.683-36.238-2.653-11.545-8.422-21.475-16.368-29.169l-0.016-0.015-136.533-139.378c39.822-68.267 89.6-132.267 149.333-192 58.002-58.071 122.817-109.314 193.15-152.434l4.539-2.588 133.689 133.689c8.533 8.533 19.684 14.962 33.451 19.228 13.71 4.267 27.25 5.404 40.505 3.527l196.267-39.822c13.255-2.844 24.178-9.216 32.711-19.172s12.8-21.618 12.8-34.873v-230.4c0-17.067-5.689-31.289-17.067-42.667s-25.6-17.067-42.667-17.067z" />
<glyph unicode="&#xe970;" glyph-name="phone" d="M964.267-64c-122.311 0-241.55 27.307-357.66 81.806-119.337 56.385-221.387 128.872-308.615 216.17l-0.008 0.008c-87.306 87.236-159.793 189.285-213.371 302.058l-2.807 6.564c-54.556 116.11-81.806 235.349-81.806 357.66 0 17.067 5.689 31.289 17.067 42.667s25.6 17.067 42.667 17.067h230.4c0.125 0.001 0.273 0.002 0.422 0.002 13.419 0 25.707-4.84 35.215-12.868l-0.081 0.067c9.911-7.927 16.704-19.392 18.461-32.454l0.028-0.257 36.978-199.111c1.877-13.255 1.707-25.372-0.683-36.238-2.653-11.545-8.422-21.475-16.368-29.169l-0.016-0.015-136.533-139.378c39.822-68.267 89.6-132.267 149.333-192 58.002-58.071 122.817-109.314 193.15-152.434l4.539-2.588 133.689 133.689c8.533 8.533 19.684 14.962 33.451 19.228 13.71 4.267 27.25 5.404 40.505 3.527l196.267-39.822c13.255-2.844 24.178-9.216 32.711-19.172s12.8-21.618 12.8-34.873v-230.4c0-17.067-5.689-31.289-17.067-42.667s-25.6-17.067-42.667-17.067z" />
<glyph unicode="&#xe971;" glyph-name="play-circle-blue" d="M512-64c-0.959-0.007-2.094-0.010-3.23-0.010-70.998 0-138.528 14.847-199.655 41.607l3.205-1.25c-63.131 27.211-117.056 64.105-162.578 109.432l0.018-0.018c-46.080 46.080-82.534 100.25-109.414 162.56-25.509 57.918-40.356 125.445-40.356 196.44 0 1.139 0.004 2.278 0.011 3.415l-0.001-0.175c0 70.81 13.466 137.37 40.346 199.68 27.211 63.131 64.105 117.056 109.432 162.578l-0.018-0.018c46.080 46.080 100.25 82.586 162.56 109.466 57.922 25.477 125.447 40.305 196.436 40.305 1.141 0 2.28-0.004 3.419-0.011l-0.175 0.001c70.81 0 137.37-13.414 199.68-40.294 63.128-27.242 117.050-64.151 162.578-109.484l-0.018 0.018c46.080-46.080 82.534-100.25 109.414-162.56 25.509-57.922 40.356-125.452 40.356-196.45 0-1.135-0.004-2.27-0.011-3.404l0.001 0.174c0.007-0.959 0.010-2.094 0.010-3.23 0-70.998-14.847-138.528-41.607-199.655l1.25 3.205c-27.211-63.131-64.105-117.056-109.432-162.578l0.018 0.018c-46.080-46.080-100.25-82.534-162.56-109.414-57.922-25.509-125.452-40.356-196.45-40.356-1.135 0-2.27 0.004-3.404 0.011l0.174-0.001zM384 217.6l358.4 230.4-358.4 230.4v-460.8z" />
<glyph unicode="&#xe972;" glyph-name="play-circle-white" d="M512-64c-0.959-0.007-2.094-0.010-3.23-0.010-70.998 0-138.528 14.847-199.655 41.607l3.205-1.25c-63.131 27.211-117.056 64.105-162.578 109.432l0.018-0.018c-46.080 46.080-82.534 100.25-109.414 162.56-25.509 57.918-40.356 125.445-40.356 196.44 0 1.139 0.004 2.278 0.011 3.415l-0.001-0.175c0 70.81 13.466 137.37 40.346 199.68 27.211 63.131 64.105 117.056 109.432 162.578l-0.018-0.018c46.080 46.080 100.25 82.586 162.56 109.466 57.922 25.477 125.447 40.305 196.436 40.305 1.141 0 2.28-0.004 3.419-0.011l-0.175 0.001c70.81 0 137.37-13.414 199.68-40.294 63.128-27.242 117.050-64.151 162.578-109.484l-0.018 0.018c46.080-46.080 82.534-100.25 109.414-162.56 25.509-57.922 40.356-125.452 40.356-196.45 0-1.135-0.004-2.27-0.011-3.404l0.001 0.174c0.007-0.959 0.010-2.094 0.010-3.23 0-70.998-14.847-138.528-41.607-199.655l1.25 3.205c-27.211-63.131-64.105-117.056-109.432-162.578l0.018 0.018c-46.080-46.080-100.25-82.534-162.56-109.414-57.922-25.509-125.452-40.356-196.45-40.356-1.135 0-2.27 0.004-3.404 0.011l0.174-0.001zM384 217.6l358.4 230.4-358.4 230.4v-460.8z" />
<glyph unicode="&#xe973;" glyph-name="play-white" d="M512-64c-0.959-0.007-2.094-0.010-3.23-0.010-70.998 0-138.528 14.847-199.655 41.607l3.205-1.25c-63.131 27.211-117.056 64.105-162.578 109.432l0.018-0.018c-46.080 46.080-82.534 100.25-109.414 162.56-25.509 57.918-40.356 125.445-40.356 196.44 0 1.139 0.004 2.278 0.011 3.415l-0.001-0.175c0 70.81 13.466 137.37 40.346 199.68 27.211 63.131 64.105 117.056 109.432 162.578l-0.018-0.018c46.080 46.080 100.25 82.586 162.56 109.466 57.922 25.477 125.447 40.305 196.436 40.305 1.141 0 2.28-0.004 3.419-0.011l-0.175 0.001c70.81 0 137.37-13.414 199.68-40.294 63.128-27.242 117.050-64.151 162.578-109.484l-0.018 0.018c46.080-46.080 82.534-100.25 109.414-162.56 25.509-57.922 40.356-125.452 40.356-196.45 0-1.135-0.004-2.27-0.011-3.404l0.001 0.174c0.007-0.959 0.010-2.094 0.010-3.23 0-70.998-14.847-138.528-41.607-199.655l1.25 3.205c-27.211-63.131-64.105-117.056-109.432-162.578l0.018 0.018c-46.080-46.080-100.25-82.534-162.56-109.414-57.922-25.509-125.452-40.356-196.45-40.356-1.135 0-2.27 0.004-3.404 0.011l0.174-0.001zM384 217.6l358.4 230.4-358.4 230.4v-460.8z" />
<glyph unicode="&#xe974;" glyph-name="play" d="M512-64c-0.959-0.007-2.094-0.010-3.23-0.010-70.998 0-138.528 14.847-199.655 41.607l3.205-1.25c-63.131 27.211-117.056 64.105-162.578 109.432l0.018-0.018c-46.080 46.080-82.534 100.25-109.414 162.56-25.509 57.918-40.356 125.445-40.356 196.44 0 1.139 0.004 2.278 0.011 3.415l-0.001-0.175c0 70.81 13.466 137.37 40.346 199.68 27.211 63.131 64.105 117.056 109.432 162.578l-0.018-0.018c46.080 46.080 100.25 82.586 162.56 109.466 57.922 25.477 125.447 40.305 196.436 40.305 1.141 0 2.28-0.004 3.419-0.011l-0.175 0.001c70.81 0 137.37-13.414 199.68-40.294 63.128-27.242 117.050-64.151 162.578-109.484l-0.018 0.018c46.080-46.080 82.534-100.25 109.414-162.56 25.509-57.922 40.356-125.452 40.356-196.45 0-1.135-0.004-2.27-0.011-3.404l0.001 0.174c0.007-0.959 0.010-2.094 0.010-3.23 0-70.998-14.847-138.528-41.607-199.655l1.25 3.205c-27.211-63.131-64.105-117.056-109.432-162.578l0.018 0.018c-46.080-46.080-100.25-82.534-162.56-109.414-57.922-25.509-125.452-40.356-196.45-40.356-1.135 0-2.27 0.004-3.404 0.011l0.174-0.001zM384 217.6l358.4 230.4-358.4 230.4v-460.8z" />
<glyph unicode="&#xe975;" glyph-name="plus-blue" d="M438.857-64v438.857h-438.857v146.286h438.857v438.857h146.286v-438.857h438.857v-146.286h-438.857v-438.857h-146.286z" />
<glyph unicode="&#xe976;" glyph-name="plus-white" d="M438.857-64v438.857h-438.857v146.286h438.857v438.857h146.286v-438.857h438.857v-146.286h-438.857v-438.857h-146.286z" />
<glyph unicode="&#xe977;" glyph-name="plus" d="M438.857-64v438.857h-438.857v146.286h438.857v438.857h146.286v-438.857h438.857v-146.286h-438.857v-438.857h-146.286z" />
<glyph unicode="&#xe978;" glyph-name="pressure-white" horiz-adv-x="683" d="M296.533-45.867v163.2l-82.133-81.067-62.933 62.933 188.8 186.667 186.667-186.667-62.933-62.933-80 83.2v-165.333h-87.467zM1.067 342.4v64h681.6v-64h-681.6zM1.067 471.467v64h681.6v-64h-681.6zM340.267 592l-187.733 187.733 62.933 62.933 80-85.333v166.4h87.467v-166.4l82.133 85.333 62.933-62.933-187.733-187.733z" />
<glyph unicode="&#xe979;" glyph-name="pressure" horiz-adv-x="683" d="M296.533-45.867v163.2l-82.133-81.067-62.933 62.933 188.8 186.667 186.667-186.667-62.933-62.933-80 83.2v-165.333h-87.467zM1.067 342.4v64h681.6v-64h-681.6zM1.067 471.467v64h681.6v-64h-681.6zM340.267 592l-187.733 187.733 62.933 62.933 80-85.333v166.4h87.467v-166.4l82.133 85.333 62.933-62.933-187.733-187.733z" />
<glyph unicode="&#xe97a;" glyph-name="rotate-right" horiz-adv-x="896" d="M490.080-64v79.968c32.134 4.835 61.007 12.932 88.287 24.117l-2.527-0.917c27.936 11.2 54.4 25.792 79.328 43.84l54.144-55.456c-32.64-24.928-67.264-45.12-103.776-60.608-33.575-14.596-72.545-25.463-113.275-30.714l-2.181-0.23zM386.912-64c-110.912 14.624-203.136 63.2-276.608 145.728-73.536 82.56-110.304 179.264-110.304 290.176 0 61.056 11.616 118.016 34.816 170.912 23.666 53.791 55.371 99.744 94.154 138.634l-0.010-0.010c38.896 38.781 84.871 70.488 135.815 93.010l2.873 1.134c52.832 23.2 109.792 34.816 170.848 34.816h23.2l-92.864 94.144 54.208 55.456 188.288-188.288-188.288-188.288-54.176 54.144 95.456 95.456h-25.792c-100.608 0-185.92-35.040-256-105.152-70.080-70.048-105.12-155.36-105.12-255.968 0-89.408 29.248-167.872 87.68-235.392 58.496-67.456 132.416-108.096 221.856-121.856v-78.656zM782.848 101.088l-55.488 54.112c16.831 22.91 31.552 49.053 42.952 76.908l0.888 2.452c11.168 27.904 19.328 56.512 24.48 85.76h78.688c-4.708-42.49-15.174-81.328-30.684-117.49l1.020 2.674c-17.005-39.896-37.762-74.309-62.575-105.337l0.687 0.889zM874.368 423.488h-78.656c-5.831 32.506-14.319 61.297-25.528 88.686l1.048-2.894c-12.298 30.282-27.018 56.403-44.56 80.326l0.72-1.030 55.424 54.176c24.96-30.080 45.152-63.84 60.64-101.216 14.589-34.332 25.461-74.194 30.713-115.805l0.231-2.243z" />
<glyph unicode="&#xe97b;" glyph-name="rotation-white" horiz-adv-x="1575" d="M551.385-64l-110.277 110.277 137.846 141.785c-168.015 22.292-306.57 68.293-415.508 137.846s-163.446 149.662-163.446 240.246c0 108.938 75.855 201.886 227.486 278.686s338.314 115.161 560.207 115.161 408.655-38.361 560.286-115.161c151.631-76.8 227.407-169.748 227.407-278.686 0-81.369-43.638-154.23-130.993-218.585-87.276-64.354-201.177-112.246-341.622-143.754v161.477c101.061 26.23 178.806 58.762 233.314 97.516 54.508 38.676 81.762 73.177 81.762 103.345 0 41.984-56.084 91.924-168.33 149.662s-266.24 86.646-461.824 86.646c-195.584 0-349.499-28.908-461.745-86.646s-168.409-107.678-168.409-149.662c0-31.508 33.477-69.317 100.431-113.27s162.107-77.115 285.538-99.407l-102.4 102.4 110.277 110.277 315.077-315.077-315.077-315.077z" />
<glyph unicode="&#xe97c;" glyph-name="rotation" horiz-adv-x="1575" d="M551.385-64l-110.277 110.277 137.846 141.785c-168.015 22.292-306.57 68.293-415.508 137.846s-163.446 149.662-163.446 240.246c0 108.938 75.855 201.886 227.486 278.686s338.314 115.161 560.207 115.161 408.655-38.361 560.286-115.161c151.631-76.8 227.407-169.748 227.407-278.686 0-81.369-43.638-154.23-130.993-218.585-87.276-64.354-201.177-112.246-341.622-143.754v161.477c101.061 26.23 178.806 58.762 233.314 97.516 54.508 38.676 81.762 73.177 81.762 103.345 0 41.984-56.084 91.924-168.33 149.662s-266.24 86.646-461.824 86.646c-195.584 0-349.499-28.908-461.745-86.646s-168.409-107.678-168.409-149.662c0-31.508 33.477-69.317 100.431-113.27s162.107-77.115 285.538-99.407l-102.4 102.4 110.277 110.277 315.077-315.077-315.077-315.077z" />
<glyph unicode="&#xe97d;" glyph-name="rpm-grey" d="M361.626 69.837c-81.152 37.222-147.251 93.44-198.4 168.704-51.098 75.264-76.646 160.205-76.646 254.822 0 20.173 1.178 39.936 3.533 59.392 2.676 21.965 6.376 41.304 11.245 60.172l-0.698-3.187-53.862-31.437-46.797 80.333 223.539 128 128.717-221.133-81.92-46.541-63.181 109.414c-8.602-20.992-15.002-42.701-19.302-65.178-4.301-22.528-6.451-45.773-6.451-69.837-0.008-0.91-0.013-1.987-0.013-3.065 0-75.503 23.182-145.591 62.816-203.536l-0.799 1.238c40.447-60.373 96.576-107.396 162.608-135.782l2.41-0.922-46.797-81.459zM719.718 634.163v93.133h127.59c-34.887 43.060-78.256 77.798-127.727 101.984l-2.219 0.979c-46.756 23.13-101.803 36.662-160.011 36.662-0.518 0-1.036-0.001-1.554-0.003h0.080c-42.906 0-83.456-6.605-121.702-19.814-40.245-13.999-75.128-32.909-106.27-56.499l0.951 0.691-46.797 81.408c36.531 25.726 78.544 47.395 123.42 62.929l3.556 1.071c42.618 14.773 91.735 23.305 142.846 23.305 0.991 0 1.981-0.003 2.971-0.010l-0.152 0.001c0.396 0.001 0.864 0.002 1.333 0.002 63.427 0 123.91-12.605 179.081-35.446l-3.108 1.14c58.904-24.215 109.244-57.866 151.611-99.59l-0.059 0.058v64h93.645v-256h-257.485zM689.306-64l-223.539 128 128.717 221.082 80.794-46.541-66.714-114.022c92.058 13.158 168.704 54.477 229.99 123.904 61.184 69.478 91.802 151.091 91.802 244.941 0 8.55-0.154 16.691-0.512 24.474-0.476 8.555-1.535 16.526-3.152 24.293l0.182-1.048h94.771c0.768-7.731 1.382-15.36 1.792-22.682 0.358-7.373 0.563-15.36 0.563-23.859 0-104.704-31.386-198.4-94.208-281.037-62.822-82.586-144.538-138.24-245.197-166.912l51.507-30.31-46.797-80.282z" />
<glyph unicode="&#xe97e;" glyph-name="rpm-white" d="M361.626 69.837c-81.152 37.222-147.251 93.44-198.4 168.704-51.098 75.264-76.646 160.205-76.646 254.822 0 20.173 1.178 39.936 3.533 59.392 2.676 21.965 6.376 41.304 11.245 60.172l-0.698-3.187-53.862-31.437-46.797 80.333 223.539 128 128.717-221.133-81.92-46.541-63.181 109.414c-8.602-20.992-15.002-42.701-19.302-65.178-4.301-22.528-6.451-45.773-6.451-69.837-0.008-0.91-0.013-1.987-0.013-3.065 0-75.503 23.182-145.591 62.816-203.536l-0.799 1.238c40.447-60.373 96.576-107.396 162.608-135.782l2.41-0.922-46.797-81.459zM719.718 634.163v93.133h127.59c-34.887 43.060-78.256 77.798-127.727 101.984l-2.219 0.979c-46.756 23.13-101.803 36.662-160.011 36.662-0.518 0-1.036-0.001-1.554-0.003h0.080c-42.906 0-83.456-6.605-121.702-19.814-40.245-13.999-75.128-32.909-106.27-56.499l0.951 0.691-46.797 81.408c36.531 25.726 78.544 47.395 123.42 62.929l3.556 1.071c42.618 14.773 91.735 23.305 142.846 23.305 0.991 0 1.981-0.003 2.971-0.010l-0.152 0.001c0.396 0.001 0.864 0.002 1.333 0.002 63.427 0 123.91-12.605 179.081-35.446l-3.108 1.14c58.904-24.215 109.244-57.866 151.611-99.59l-0.059 0.058v64h93.645v-256h-257.485zM689.306-64l-223.539 128 128.717 221.082 80.794-46.541-66.714-114.022c92.058 13.158 168.704 54.477 229.99 123.904 61.184 69.478 91.802 151.091 91.802 244.941 0 8.55-0.154 16.691-0.512 24.474-0.476 8.555-1.535 16.526-3.152 24.293l0.182-1.048h94.771c0.768-7.731 1.382-15.36 1.792-22.682 0.358-7.373 0.563-15.36 0.563-23.859 0-104.704-31.386-198.4-94.208-281.037-62.822-82.586-144.538-138.24-245.197-166.912l51.507-30.31-46.797-80.282z" />
<glyph unicode="&#xe97f;" glyph-name="rpm" d="M361.626 69.837c-81.152 37.222-147.251 93.44-198.4 168.704-51.098 75.264-76.646 160.205-76.646 254.822 0 20.173 1.178 39.936 3.533 59.392 2.676 21.965 6.376 41.304 11.245 60.172l-0.698-3.187-53.862-31.437-46.797 80.333 223.539 128 128.717-221.133-81.92-46.541-63.181 109.414c-8.602-20.992-15.002-42.701-19.302-65.178-4.301-22.528-6.451-45.773-6.451-69.837-0.008-0.91-0.013-1.987-0.013-3.065 0-75.503 23.182-145.591 62.816-203.536l-0.799 1.238c40.447-60.373 96.576-107.396 162.608-135.782l2.41-0.922-46.797-81.459zM719.718 634.163v93.133h127.59c-34.887 43.060-78.256 77.798-127.727 101.984l-2.219 0.979c-46.756 23.13-101.803 36.662-160.011 36.662-0.518 0-1.036-0.001-1.554-0.003h0.080c-42.906 0-83.456-6.605-121.702-19.814-40.245-13.999-75.128-32.909-106.27-56.499l0.951 0.691-46.797 81.408c36.531 25.726 78.544 47.395 123.42 62.929l3.556 1.071c42.618 14.773 91.735 23.305 142.846 23.305 0.991 0 1.981-0.003 2.971-0.010l-0.152 0.001c0.396 0.001 0.864 0.002 1.333 0.002 63.427 0 123.91-12.605 179.081-35.446l-3.108 1.14c58.904-24.215 109.244-57.866 151.611-99.59l-0.059 0.058v64h93.645v-256h-257.485zM689.306-64l-223.539 128 128.717 221.082 80.794-46.541-66.714-114.022c92.058 13.158 168.704 54.477 229.99 123.904 61.184 69.478 91.802 151.091 91.802 244.941 0 8.55-0.154 16.691-0.512 24.474-0.476 8.555-1.535 16.526-3.152 24.293l0.182-1.048h94.771c0.768-7.731 1.382-15.36 1.792-22.682 0.358-7.373 0.563-15.36 0.563-23.859 0-104.704-31.386-198.4-94.208-281.037-62.822-82.586-144.538-138.24-245.197-166.912l51.507-30.31-46.797-80.282z" />
<glyph unicode="&#xe980;" glyph-name="search-blue" horiz-adv-x="1069" d="M985.4-57.633l-373.983 353.948c-29.324-22.118-63.274-40.24-99.864-52.636l-2.536-0.746c-36.029-12.479-77.552-19.686-120.758-19.686-0.84 0-1.68 0.003-2.519 0.008l0.129-0.001c-107.876 0-199.101 35.35-273.809 106.051s-112.061 157.073-112.061 259.117c0 102.088 37.398 188.505 112.061 259.206 74.707 70.656 165.933 106.006 273.809 106.006 107.832 0 199.101-35.35 273.809-106.006 74.707-70.701 112.017-157.117 112.017-259.161 0.002-0.421 0.003-0.92 0.003-1.419 0-80.976-29.166-155.14-77.567-212.56l0.408 0.496 373.983-353.948-83.122-78.67zM385.87 335.627c74.173 0 137.261 24.576 189.217 73.728s77.913 108.856 77.913 179.111c0 70.211-25.956 129.914-77.913 179.111-51.957 49.107-115.044 73.683-189.217 73.683-74.218 0-137.305-24.576-189.262-73.683-51.912-49.197-77.913-108.9-77.913-179.111 0-70.255 26.001-129.959 77.913-179.111 51.957-49.152 115.044-73.728 189.217-73.728z" />
<glyph unicode="&#xe981;" glyph-name="search-slb-grey-5" horiz-adv-x="1113" d="M1027.295-51.267l-374.962 353.948c-29.405-22.131-63.442-40.267-100.12-52.678l-2.547-0.748c-36.059-12.425-77.61-19.599-120.837-19.599-0.938 0-1.875 0.003-2.811 0.010l0.144-0.001c-108.143 0-199.635 35.306-274.521 105.962-74.886 70.79-112.328 157.162-112.328 259.25 0 102.044 37.398 188.416 112.328 259.117 74.886 70.701 166.378 106.006 274.521 106.006 108.099 0 199.635-35.35 274.566-106.006 74.841-70.745 112.239-157.117 112.239-259.161 0.001-0.362 0.002-0.791 0.002-1.219 0-81.076-29.254-155.32-77.783-212.751l0.402 0.488 374.962-353.948-83.3-78.67zM426.162 341.994c74.351 0 137.661 24.576 189.752 73.728 52.046 49.152 78.091 108.856 78.091 179.111 0 70.211-26.045 129.914-78.091 179.111-52.090 49.107-115.356 73.683-189.752 73.683s-137.661-24.576-189.752-73.683c-52.090-49.197-78.091-108.9-78.091-179.111 0-70.255 26.045-129.959 78.091-179.111 52.090-49.152 115.311-73.728 189.752-73.728z" />
<glyph unicode="&#xe982;" glyph-name="search-white" d="M652.466 589.267v0c0 155.585-126.126 281.711-281.711 281.711s-281.711-126.126-281.711-281.711v0c0-155.585 126.126-281.711 281.711-281.711s281.711 126.126 281.711 281.711zM596.903 295.424c-61.882-48.022-140.646-76.984-226.173-76.984-204.75 0-370.733 165.983-370.733 370.733s165.983 370.733 370.733 370.733c204.75 0 370.733-165.983 370.733-370.733 0-87.832-30.543-168.529-81.588-232.051l0.561 0.722 345.489-345.489-62.909-62.998-346.112 346.112z" />
<glyph unicode="&#xe983;" glyph-name="search" d="M652.466 589.267v0c0 155.585-126.126 281.711-281.711 281.711s-281.711-126.126-281.711-281.711v0c0-155.585 126.126-281.711 281.711-281.711s281.711 126.126 281.711 281.711zM596.903 295.424c-61.882-48.022-140.646-76.984-226.173-76.984-204.75 0-370.733 165.983-370.733 370.733s165.983 370.733 370.733 370.733c204.75 0 370.733-165.983 370.733-370.733 0-87.832-30.543-168.529-81.588-232.051l0.561 0.722 345.489-345.489-62.909-62.998-346.112 346.112z" />
<glyph unicode="&#xe984;" glyph-name="share-gray" horiz-adv-x="931" d="M752.919-44.218c-43.473 0-80.896 15.686-112.314 47.104s-47.104 68.887-47.104 112.314c0 5.446 0.559 12.195 1.722 20.387 1.164 8.099 2.932 16.058 5.26 23.831l-309.527 180.364c-13.964-15.5-30.86-27.927-50.641-37.236s-40.122-13.964-61.068-13.964c-44.218 0-81.873 15.732-112.873 47.151-31.046 31.418-46.545 68.841-46.545 112.268 0 44.218 15.5 81.827 46.545 112.873 30.999 31.046 68.655 46.545 112.873 46.545 20.945 0 40.913-4.096 59.904-12.241 19.037-8.145 36.305-19.968 51.805-35.468l309.527 178.036c-2.329 6.195-4.17 13.453-5.2 20.969l-0.060 0.535c-1.022 6.422-1.646 13.881-1.722 21.47l-0.001 0.080c0 43.427 15.686 80.849 47.104 112.268s68.887 47.151 112.314 47.151c44.218 0 81.827-15.732 112.873-47.151 30.999-31.418 46.545-68.841 46.545-112.268s-15.546-80.896-46.545-112.314c-27.857-29.063-66.994-47.125-110.35-47.125-0.887 0-1.773 0.008-2.656 0.023l0.133-0.002c-21.737 0-42.077 3.119-61.114 9.309-19.41 6.407-35.756 17.691-48.136 32.421l-0.132 0.161-310.737-168.727c2.327-6.982 3.863-15.127 4.655-24.436 0.777-6.113 1.22-13.187 1.22-20.364s-0.443-14.25-1.304-21.194l0.084 0.831c-0.791-6.982-2.327-14.336-4.655-22.109l310.691-173.382c13.172 13.172 28.858 23.273 47.104 30.255 17.656 6.649 38.064 10.497 59.371 10.497 1.022 0 2.042-0.009 3.060-0.026l-0.153 0.002c44.218 0 81.827-15.732 112.873-47.151 30.999-31.418 46.545-68.841 46.545-112.268s-15.732-80.896-47.151-112.314c-31.418-31.418-68.841-47.104-112.268-47.104z" />
</font>
</defs>
</svg>
